<?xml version="1.0" standalone="no"?>
<!DOCTYPE svg PUBLIC "-//W3C//DTD SVG 1.1//EN" "http://www.w3.org/Graphics/SVG/1.1/DTD/svg11.dtd" >
<svg xmlns="http://www.w3.org/2000/svg">
<metadata>Generated by IcoMoon</metadata>
<defs>
<font id="icomoon" horiz-adv-x="1024">
<font-face units-per-em="1024" ascent="960" descent="-64" />
<missing-glyph horiz-adv-x="1024" />
<glyph unicode="&#x20;" d="" horiz-adv-x="512" />
<glyph unicode="&#xe600;" d="M853.333 853.333v85.333h-256v-85.333h85.333v-768h-85.333v-85.333h256v85.333h-85.333v768zM597.333 753.408c0 4.437-8.32 9.771-13.653 13.568-23.509 17.536-49.493 28.971-78.336 34.261-28.843 5.333-62.507 7.979-101.248 7.979-28.075 0-56.917-4.437-86.4-13.483-29.525-9.003-54.613-19.925-75.349-32.896-24.021-15.189-43.477-32.512-58.453-51.84-14.976-19.371-22.485-39.68-22.485-60.885 0-20.309 5.419-38.613 16.256-54.997s27.776-24.533 50.816-24.533c25.813 0 45.995 6.656 60.544 20.096 14.549 13.312 21.803 28.075 21.803 44.245 0 15.189-2.219 31.787-6.571 49.792-4.437 17.963-6.571 31.573-6.571 40.789 7.381 7.851 20.181 15.317 38.4 22.485 18.176 7.168 37.931 10.709 59.136 10.709 30.891 0 54.741-6.315 71.595-18.987 16.853-12.715 29.867-27.563 39.083-44.629 8.277-15.232 6.101-49.749 6.101-49.749v-101.76c0-11.989-57.899-28.587-121.344-49.792s-102.016-35.712-122.795-43.563c-16.555-6.485-32.512-15.147-51.456-25.941-18.901-10.88-33.28-23.168-44.843-37.035-14.763-16.597-25.387-35.243-32.768-55.979s-10.795-44.245-10.795-70.571c0-50.731 16.597-91.776 49.579-123.136 32.939-31.317 75.093-47.061 126.251-47.061 48.427 0 89.813 18.987 124.16 36.48 34.432 17.621 66.603 43.691 96.555 86.357h4.181c6.016-42.667 19.371-67.029 40.789-83.883l27.819-1.451v625.408zM523.179 246.314c-17.067-21.717-38.059-40.491-62.933-56.491-24.917-15.915-53.76-23.936-86.485-23.936-30.933 0-56.363 9.003-76.416 27.093-20.096 18.005-30.080 46.165-30.080 84.48 0 29.568 6.656 55.168 20.096 76.629 13.312 21.547 31.573 40.107 54.571 55.808 25.429 16.683 52.821 30.507 82.347 41.643 29.483 11.093 59.648 21.248 98.901 32.725v-237.952z" />
<glyph unicode="&#xe601;" d="M42.667 853.333v-298.667h42.667v-469.333h853.333v469.333h42.667v298.667h-938.667zM853.333 170.666h-682.667v384h682.667v-384zM896 640h-768v128h768v-128zM768 512h-512v-298.667h512v298.667zM725.333 256h-426.667v213.333h426.667v-213.333zM682.667 426.666h-341.333v-42.667h341.333v42.667zM554.667 341.333h-213.333v-42.667h213.333v42.667z" />
<glyph unicode="&#xe602;" d="M896 512v298.667h-128v128h-682.667v-426.667h-42.667v-85.333h42.667v-469.333h853.333v469.333h42.667v85.333h-85.333zM810.667 725.333v-213.333h-512v213.333h512zM170.667 853.333h512v-42.667h-469.333v-298.667h-42.667v341.333zM853.333 42.666h-682.667v384h682.667v-384zM768 384h-512v-298.667h512v298.667zM725.333 128h-426.667v213.333h426.667v-213.333zM682.667 298.666h-341.333v-42.667h341.333v42.667zM554.667 213.333h-213.333v-42.667h213.333v42.667z" />
<glyph unicode="&#xe603;" d="M42.667 725.333v-554.666h896v554.666h-896zM128 256v335.616l663.211-335.616h-663.211zM853.333 300.842l-272.128 145.365 272.128 145.408v-290.773zM515.755 494.592l-286.123 145.408h562.987l-276.864-145.408z" />
<glyph unicode="&#xe604;" d="M554.667 725.333h-256v-85.333h256v85.333zM682.667 597.333h-384v-42.667h384v42.667zM682.667 512h-384v-42.667h384v42.667zM853.333 469.29v469.376h-725.333v-470.741l-85.333 44.075v-554.667h896v554.325l-85.333-42.368zM213.333 853.333h554.667v-422.784l-85.333-45.739v41.856h-384v-42.667h382.507l-191.659-102.741-276.181 142.635v429.44zM128 42.666v335.616l625.109-335.616h-625.109zM853.333 87.509l-272.128 145.365 272.128 145.408v-290.773z" />
<glyph unicode="&#xe605;" d="M213.333 981.333v-128h-128v-896h725.333v128h128v896h-725.333zM725.333 42.666h-554.667v725.333h42.667v-682.667h512v-42.667zM853.333 170.666h-554.667v725.333h554.667v-725.333zM640 768h-256v-85.333h256v85.333zM768 640h-384v-42.667h384v42.667zM768 554.666h-384v-42.667h384v42.667zM768 469.333h-384v-42.667h384v42.667zM512 384h-128v-42.667h128v42.667z" />
<glyph unicode="&#xe606;" d="M923.435 469.333h-70.101v426.667h-725.333v-426.667h-57.899c-46.933 0-70.101-38.4-70.101-85.333v-85.333c0-46.933 23.168-85.333 70.101-85.333h57.899v-213.333h256v213.333h85.333v-213.333h341.333v213.333h112.768c46.933 0 100.565 38.4 100.565 85.333v85.333c0 46.933-53.675 85.333-100.565 85.333zM298.667 85.333h-85.333v128h85.333v-128zM597.333 85.333h-42.667v128h42.667v-128zM725.333 85.333h-42.667v128h42.667v-128zM768 469.333h-554.667v341.333h554.667v-341.333zM864.768 273.621c-35.925 0-64.981 29.141-64.981 65.024s29.099 65.024 64.981 65.024 65.067-29.141 65.067-65.024-29.184-65.024-65.067-65.024zM298.667 682.666h256v-85.333h-256zM298.667 554.666h384v-42.667h-384zM42.667 768h42.667v-213.333h-42.667zM896 682.666h42.667v-128h-42.667z" />
<glyph unicode="&#xe607;" d="M597.333 896v-170.667h-170.667v-170.667h-170.667v-170.667h-170.667v-341.333h810.667v853.333h-298.667zM298.667 128h-128v170.667h128v-170.667zM469.333 128h-128v341.333h128v-341.333zM640 128h-128v512h128v-512zM810.667 128h-128v682.667h128v-682.667z" />
<glyph unicode="&#xe608;" d="M597.333 896v-170.667h-170.667v-170.667h-170.667v-170.667h-170.667v-341.333h810.667v853.333h-298.667zM469.333 128h-128v341.333h128v-341.333zM640 128h-128v512h128v-512zM810.667 128h-128v682.667h128v-682.667z" />
<glyph unicode="&#xe609;" d="M597.333 896v-170.667h-170.667v-170.667h-170.667v-170.667h-170.667v-341.333h810.667v853.333h-298.667zM640 128h-128v512h128v-512zM810.667 128h-128v682.667h128v-682.667z" />
<glyph unicode="&#xe60a;" d="M597.333 896v-170.667h-170.667v-170.667h-170.667v-170.667h-170.667v-341.333h810.667v853.333h-298.667zM810.667 128h-128v682.667h128v-682.667z" />
<glyph unicode="&#xe60b;" d="M597.333 896v-170.667h-170.667v-170.667h-170.667v-170.667h-170.667v-341.333h810.667v853.333h-298.667z" />
<glyph unicode="&#xe60c;" d="M597.333 938.666h-213.333c-70.656 0-128-57.301-128-128v-384c0-70.699 57.344-128 128-128h213.333c70.656 0 128 57.301 128 128v384c0 70.699-57.344 128-128 128zM640 725.333v-42.667h-85.333v-42.667h85.333v-42.667h-85.333v-42.667h85.333v-42.667h-85.333v-42.667h85.333v-42.667c0-23.509 3.072-42.667-20.437-42.667h-257.792c-23.509 0-20.437 19.157-20.437 42.667v42.667h85.333v42.667h-85.333v42.667h85.333v42.667h-85.333v42.667h85.333v42.667h-85.333v42.667h85.333v42.667h-85.333v42.667c0 23.509-3.072 42.667 20.437 42.667h257.749c23.552 0 20.48-19.157 20.48-42.667v-42.667h-85.333v-42.667h85.333zM810.667 469.333v85.333h-42.667v-213.333c0-47.829-31.104-85.333-99.2-85.333h-356.267c-68.096 0-99.2 37.504-99.2 85.333v213.333h-42.667v-85.333h-42.667v-85.333h42.667v-42.667c0-95.701 25.941-128 141.867-128h71.467v-128h-85.333v-85.333h384v85.333h-85.333v128h71.467c115.925 0 141.867 32.299 141.867 128v42.667h42.667v85.333h-42.667z" />
<glyph unicode="&#xe60d;" d="M170.667 351.658l42.667 42.667v160.341h-42.667v-85.333h-42.667v-85.333h42.667v-32.341zM810.667 469.333v85.333h-42.667v-213.333c0-47.829-82.944-85.333-151.040-85.333h-209.579l-85.333-42.667h61.952v-128h-85.333v-85.333h384v85.333h-85.333v128h19.627c115.925 0 193.707 32.299 193.707 128v42.667h42.667v85.333h-42.667zM554.667 725.333v42.667h-42.667v-42.667h42.667zM341.333 554.666h85.333v42.667h-85.333v42.667h85.333v42.667h-85.333v42.667h85.333v42.667h-85.333v42.667c0 23.509-10.496 42.667 13.056 42.667h213.333c20.48 0 36.821-14.805 40.917-34.091l64.171 64.171c-23.125 33.323-61.568 55.253-105.088 55.253h-213.333c-70.613 0-98.389-57.429-98.389-128v-373.675l85.333 85.333v32.341zM567.723 384h-75.008l-85.333-85.333h160.341c70.571 0 157.611 57.429 157.611 128v160.341l-85.333-85.333v-75.008c0-23.509-48.768-42.667-72.277-42.667zM749.056 836.437l-597.333-597.333 42.667-85.333 597.333 597.333-42.667 85.333z" />
<glyph unicode="&#xe60e;" d="M379.435 941.312l-183.936-135.68-24.832 5.035v-725.333l554.667-128v725.333l-418.048 97.877 90.453 70.144 412.928-82.688v-341.333h42.667v419.584l-473.899 95.061z" />
<glyph unicode="&#xe60f;" d="M816.043 85.333c122.197 0 202.923 134.869 202.923 272 0 117.845-97.28 222.336-214.784 237.995l-19.499 52.011c-47.317 125.099-162.645 205.995-293.845 205.995-175.019 0-317.355-143.531-317.355-320 0-7.723 0.384-15.275 1.067-22.613-95.275-11.051-169.515-92.331-169.515-190.72 0-91.349 70.955-221.568 171.008-234.667h640zM595.84 436.224v0c37.888 54.528 114.133 60.075 148.181 76.629l0.299-0.853h29.525c83.627 0 159.744-64 159.744-144.981 0-78.592-52.096-196.352-136.235-196.352h-616.405c-46.891 0-90.581 101.248-90.581 159.019 0.043 65.835 58.283 113.621 127.061 99.669l66.176-15.787-16.256 64.299c-4.267 16.981-8.533 36.437-8.533 56.064 0 129.408 104.064 234.368 232.021 234.368 96.853 0 178.816-57.899 214.016-150.869-86.315-51.029-112.811-172.16-112.811-172.16" />
<glyph unicode="&#xe610;" d="M424.363 581.845c-72.235 55.851-160.213 115.029-298.667 126.251l298.667-126.251zM424.363 453.845c-72.235 55.851-160.213 115.029-298.667 126.251l298.667-126.251zM296.32 407.424c-47.573 22.315-103.083 39.211-170.624 44.672l170.624-44.672zM556.971 581.845l298.667 126.251c-138.453-11.221-226.432-70.443-298.667-126.251zM556.971 453.845l298.667 126.251c-138.453-11.221-226.432-70.443-298.667-126.251zM855.637 452.096c-67.541-5.461-123.051-22.315-170.624-44.672l170.624 44.672zM940.971 965.845c-186.88 0-357.931-87.253-444.373-156.331h-11.819c-86.485 69.077-257.536 156.331-444.416 156.331h-40.363v-810.667h40.363c138.069 0 291.115-53.163 359.168-104.491 20.224-15.317 38.699-31.317 54.955-47.616l34.176-31.36h4.011l34.176 31.36c16.256 16.299 34.731 32.299 54.955 47.616 68.053 51.328 221.099 104.491 359.168 104.491h40.363v810.667h-40.363zM469.333 105.77c0 4.352-10.411 8.747-16.043 13.013-71.381 53.803-239.957 110.763-367.957 120.32v639.659c170.667-13.056 309.888-95.957 370.389-156.245l11.563-12.672h2.048v-604.075zM896 239.104c-128-9.557-296.576-66.517-367.957-120.32-5.632-4.267-16.043-8.704-16.043-13.013v604.075h2.091l11.563 12.672c60.459 60.288 199.68 143.189 370.347 156.245v-639.659z" />
<glyph unicode="&#xe611;" d="M783.531-22.315c-16.171-0.085-33.152 4.565-50.517 13.739l-165.376 86.912c-27.648 14.592-83.627 14.592-111.36 0l-165.291-86.912c-41.387-21.76-82.816-16.597-106.411 11.349-11.392 13.483-23.509 38.016-16.64 77.995l31.573 184.149c5.547 32.427-10.88 82.901-34.432 105.899l-133.845 130.389c-28.032 27.435-38.613 59.989-29.056 89.429 9.6 29.397 37.333 49.536 76.16 55.168l184.832 26.88c32.597 4.736 75.563 35.925 90.069 65.408l82.731 167.595c17.365 35.157 45.056 55.296 76.032 55.296s58.667-20.181 75.989-55.339l82.731-167.595c14.549-29.483 57.515-60.672 90.069-65.408l184.832-26.88c38.827-5.632 66.603-25.771 76.16-55.168 9.557-29.397-1.024-61.995-29.141-89.429l-133.845-130.389c-23.552-22.997-39.979-73.515-34.432-105.899l31.573-184.149c6.869-40.021-5.248-64.512-16.64-77.909-13.525-16.213-33.408-25.131-55.765-25.131zM512 175.146c35.413 0 69.291-7.595 95.36-21.333l164.395-86.4-31.36 183.083c-10.368 60.501 14.976 138.496 58.923 181.419l133.035 129.579-183.765 26.752c-60.843 8.832-127.189 57.003-154.325 112.085l-82.261 166.528-82.261-166.528c-27.136-55.083-93.483-103.253-154.325-112.085l-183.765-26.752 133.035-129.579c43.947-42.923 69.291-120.917 58.923-181.419l-31.36-183.083 164.352 86.4c26.112 13.781 59.989 21.333 95.403 21.333z" />
<glyph unicode="&#xe612;" d="M896 597.333h-298.667v-85.333h298.667v-341.333h-298.667c0-46.933-42.667-85.333-42.667-85.333h341.333c46.933 0 85.333 38.4 85.333 85.333v341.333c0 46.933-38.4 85.333-85.333 85.333zM426.667 853.333h-341.333c-46.933 0-85.333-38.4-85.333-85.333v-597.333c0-46.933 38.4-85.333 85.333-85.333h341.333c46.933 0 85.333 38.4 85.333 85.333v597.333c0 46.933-38.4 85.333-85.333 85.333zM298.667 128h-85.333v85.333h85.333v-85.333zM426.667 256h-341.333v512h341.333v-512z" />
<glyph unicode="&#xe613;" d="M85.333 768h341.333v-85.333h85.333v85.333c0 46.933-38.4 85.333-85.333 85.333h-341.333c-46.933 0-85.333-38.4-85.333-85.333v-597.333c0-46.933 32.469-85.333 79.36-85.333h48.64v170.667h-42.667v512zM896 597.333h-597.333c-46.933 0-85.333-38.4-85.333-85.333v-341.333c0-46.933 38.4-85.333 85.333-85.333h597.333c46.933 0 85.333 38.4 85.333 85.333v341.333c0 46.933-38.4 85.333-85.333 85.333zM341.333 298.666h-85.333v85.333h85.333v-85.333zM896 170.666h-512v341.333h512v-341.333z" />
<glyph unicode="&#xe614;" d="M810.667 938.666h-597.333c-46.933 0-85.333-38.4-85.333-85.333v-768c0-46.933 38.4-85.333 85.333-85.333h597.333c46.933 0 85.333 38.4 85.333 85.333v768c0 46.933-38.4 85.333-85.333 85.333zM554.667 42.666h-85.333v85.333h85.333v-85.333zM810.667 170.666h-597.333v682.667h597.333v-682.667z" />
<glyph unicode="&#xe615;" d="M981.333 170.666v597.333c0 46.933-38.4 85.333-85.333 85.333h-768c-46.933 0-85.333-38.4-85.333-85.333v-597.333c0-46.933 38.4-85.333 85.333-85.333h768c46.933 0 85.333 38.4 85.333 85.333zM85.333 426.666v85.333h85.333v-85.333h-85.333zM213.333 170.666v597.333h682.667v-597.333h-682.667z" />
<glyph unicode="&#xe616;" d="M128 725.333h768v-426.667h85.333v512h-938.667v-512h85.333v426.667zM682.667 256c-8.192-17.152-48.853-30.933-85.333-37.803v-4.864h-170.667v4.864c-36.48 6.869-77.141 20.651-85.333 37.803h-341.333v-42.667c0-46.933 128-85.333 128-85.333h768c0 0 128 38.4 128 85.333v42.667h-341.333zM853.333 170.666h-42.667v42.667h42.667v-42.667z" />
<glyph unicode="&#xe617;" d="M341.333 938.666v-170.667h-298.667v-640h261.845l71.893-170.667h469.333l92.928 85.333v896h-597.333zM128 213.333v352l140.587-352h-140.587zM320 256l-170.667 426.667h170.667v-426.667zM853.333 85.333l-50.304-42.667h-376.363v810.667h426.667v-768zM469.333 768h213.333v-42.667h-213.333zM469.333 512h213.333v-42.667h-213.333zM469.333 426.666h213.333v-42.667h-213.333zM469.333 341.333h213.333v-42.667h-213.333zM469.333 256h213.333v-42.667h-213.333zM469.333 170.666h213.333v-42.667h-213.333zM725.419 768.042h85.248v-42.752h-85.248zM725.419 682.666h42.624v-42.752h-42.624zM639.915 682.666h42.624v-42.752h-42.624zM597.419 682.666h-128.085v-42.752h128.085zM768.043 512h42.496v-42.752h-42.496zM768.043 426.709h42.496v-42.752h-42.496zM768.043 341.333h42.496v-42.752h-42.496zM768.043 256.042h42.496v-42.752h-42.496z" />
<glyph unicode="&#xe618;" d="M928.725 597.333c-23.467 0-32.725-38.4-32.725-85.333v-85.333c0-46.933 9.259-85.333 32.725-85.333s32.725 38.4 32.725 85.333h62.549v85.333h-62.592c0 46.933-9.259 85.333-32.683 85.333zM768 725.333c-42.667 0-42.667-38.4-42.667-85.333v-128h-426.667v128c0 46.933 0 85.333-42.667 85.333-46.933 0-85.333-38.4-85.333-85.333v-341.333c0-46.933 38.4-85.333 85.333-85.333 42.667 0 42.667 38.4 42.667 85.333v128h426.667v-128c0-46.933 0-85.333 42.667-85.333 46.933 0 85.333 38.4 85.333 85.333v341.333c0 46.933-38.4 85.333-85.333 85.333zM95.275 597.333c23.467 0 32.725-38.4 32.725-85.333v-85.333c0-46.933-9.259-85.333-32.725-85.333s-32.725 38.4-32.725 85.333h-62.549v85.333h62.592c0 46.933 9.259 85.333 32.683 85.333z" />
<glyph unicode="&#xe619;" d="M554.667 808.533v44.8h21.333c11.776 0 21.333 9.557 21.333 21.333v85.333c0 11.776-9.557 21.333-21.333 21.333h-128c-11.776 0-21.333-9.557-21.333-21.333v-85.333c0-11.776 9.557-21.333 21.333-21.333h21.333v-44.971c-38.443-3.925-75.392-12.971-110.208-26.411l-44.672 43.136-77.952 77.909-150.101-150.101 96.896-96.896c-61.184-73.813-97.963-168.576-97.963-272 0-235.648 191.019-426.667 426.667-426.667s426.667 191.019 426.667 426.667c0 221.269-168.363 403.115-384 424.533zM469.333 938.666h85.333v-42.667h-85.333v42.667zM146.731 752.896l89.771 89.771 49.792-49.749-89.771-89.771-49.792 49.749zM512 42.666c-188.203 0-341.333 153.131-341.333 341.333s153.131 341.333 341.333 341.333 341.333-153.131 341.333-341.333-153.131-341.333-341.333-341.333zM478.165 577.749c-16.683 16.683-43.648 16.683-60.331 0s-16.683-43.648 0-60.331l83.797-83.84-112.128-156.672c-11.563-20.523-4.309-46.549 16.256-58.069 6.613-3.755 13.781-5.504 20.864-5.504 14.933 0 29.397 7.851 37.205 21.76l128 184.917c9.429 16.683 6.528 37.547-6.997 51.072l-106.667 106.667z" />
<glyph unicode="&#xe61a;" d="M512 597.376c-70.656 0-128-57.344-128-128s57.344-128 128-128 128 57.344 128 128-57.344 128-128 128zM905.856 581.76c-13.867 4.48-26.368 11.605-37.077 21.035-17.237-31.744-38.485-64.299-61.397-96.939-35.627 45.781-76.288 91.989-121.643 137.344-45.013 45.013-91.392 85.845-137.643 121.771 109.952 77.483 215.637 124.117 290.859 124.117 30.549 0 53.931-7.893 69.461-23.424 16.896-16.896 24.363-43.435 23.040-77.056 2.432 0.171 4.693 0.768 7.168 0.768 12.288 0 23.979-2.517 34.944-6.315 2.645 47.829-8.704 86.485-34.987 112.811-23.851 23.851-57.344 35.925-99.627 35.925-87.168 0-205.312-52.011-326.912-139.819-121.6 87.808-239.744 139.861-326.912 139.861-9.045 0-17.536-0.853-25.771-1.963 11.648-11.264 20.437-25.173 26.027-40.747 75.221-0.085 180.821-46.72 290.688-124.16-46.336-36.011-92.757-76.843-137.728-121.856-44.8-44.843-85.632-91.307-121.856-137.984-36.48 51.669-66.56 102.912-88.107 151.595-14.763 33.237-24.619 63.744-30.379 91.307-4.224-0.555-8.32-1.323-12.672-1.323-11.008 0-21.419 2.176-31.403 5.248 5.717-33.963 17.28-71.595 35.456-112.555 24.192-54.656 58.24-112.299 100.053-170.155-41.771-57.771-75.733-115.413-99.968-170.027-51.584-116.352-52.949-207.403-3.883-256.469 23.851-23.851 57.344-35.925 99.627-35.925 128.853 0 325.376 113.323 500.693 288.725 44.928 44.971 85.803 91.563 121.984 138.368 118.187-166.997 152.064-309.333 100.48-360.917-15.531-15.531-38.912-23.424-69.461-23.424-40.235 0-89.387 13.568-143.104 37.845-5.675-13.653-14.080-25.771-24.533-35.925 62.208-28.8 119.637-44.587 167.637-44.587 42.283 0 75.776 12.075 99.627 35.925 74.155 74.155 27.349 244.523-104.491 427.136 27.093 37.589 51.84 75.136 71.808 111.787zM185.216 49.493c-30.549 0-53.931 7.893-69.461 23.424-35.2 35.2-30.592 111.36 12.715 208.981 21.547 48.64 51.584 99.797 87.979 151.467 36.224-46.635 77.013-93.099 121.771-137.813 45.269-45.269 91.904-85.376 138.496-121.429-110.208-77.824-216.192-124.629-291.499-124.629zM655.744 325.717c-46.677-46.677-95.232-88.832-143.531-125.525-48.427 36.779-97.024 78.805-143.829 125.525-46.677 46.677-88.704 95.104-125.568 143.531 36.864 48.512 79.019 96.981 125.696 143.701 46.635 46.677 95.232 88.832 143.573 125.611 48.299-36.736 96.853-78.891 143.488-125.525 48.469-48.469 90.197-96.64 125.952-143.36-36.864-48.64-78.976-97.152-125.781-143.957zM938.667 725.376c-23.595 0-42.667-19.072-42.667-42.667s19.072-42.667 42.667-42.667 42.667 19.072 42.667 42.667-19.072 42.667-42.667 42.667zM597.333 170.709c-23.595 0-42.667-19.072-42.667-42.667s19.072-42.667 42.667-42.667 42.667 19.072 42.667 42.667-19.072 42.667-42.667 42.667zM85.333 810.709c23.595 0 42.667 19.072 42.667 42.667s-19.072 42.667-42.667 42.667-42.667-19.072-42.667-42.667 19.072-42.667 42.667-42.667z" />
<glyph unicode="&#xe61b;" d="M836.352 763.52l60.331-60.331 60.331 60.331-150.827 150.827-60.373-60.331 60.331-60.331-90.539-90.539-181.035 181.035-60.331-60.331 60.331-60.331-452.48-452.565 103.424-103.467-118.528-183.168 183.168 118.485 103.424-103.424 452.608 452.565 60.331-60.331 60.331 60.331-181.035 180.992 90.539 90.581zM745.813 552.277l-90.581-90.496-90.496 90.539-30.165-30.165 90.496-90.539-60.331-60.373-90.496 90.539-30.165-30.165 90.496-90.539-60.331-60.331-90.496 90.539-30.165-30.165 90.496-90.539-90.496-90.496-150.827 150.869 392.149 392.192 150.912-150.869z" />
<glyph unicode="&#xe61c;" d="M550.827 955.562l-375.424-670.080 1.92-0.981 18.987-301.397 275.072 136.619 1.749-0.981 375.424 670.037-297.728 166.784zM258.347 89.6l-2.603 150.997 136.491-76.501-133.888-74.496zM440.405 234.837l-148.821 83.413 229.419 409.472 148.907-83.371-229.504-409.515zM541.824 764.97l41.771 74.453 148.821-83.413-41.685-74.411-148.907 83.371z" />
<glyph unicode="&#xe61d;" d="M167.083 825.728c-97.664-70.229-161.579-184.533-161.579-313.728 0-47.232 8.917-92.288 24.491-134.187l362.069 134.187-224.981 313.728zM66.901 522.752c-1.536 80.043 28.885 157.099 84.096 214.485l179.072-198.784-253.909-84.693c-5.717 22.443-8.832 45.568-9.259 68.992zM567.979 917.333c-107.861 0-212.053-38.869-293.461-109.483l1.067-1.195-17.024-14.891 271.957-311.936-395.691-125.696 5.803-18.219-0.427-0.128c1.195-3.968 2.773-7.723 4.139-11.563l3.413-10.795 0.384 0.128c64.896-175.659 230.571-292.267 419.84-292.267 247.040 0 448 201.003 448 448s-200.96 448.043-448 448.043zM900.437 613.802l-269.995-98.859 176.256 226.773c39.893-35.072 72.235-78.549 93.739-127.915zM346.325 756.010c63.36 48.939 141.141 75.989 221.653 75.989 76.117 0 146.731-23.68 205.141-63.915l-206.080-265.173-220.715 253.099zM230.315 339.669l310.4 98.645-57.301-320.64c-115.072 27.307-209.835 108.928-253.099 221.995zM567.979 106.666c-14.464 0-28.459 1.749-42.539 3.413l61.355 343.424 328.363 120.235c9.941-33.109 15.445-68.139 15.445-104.405 0.043-200.021-162.688-362.667-362.624-362.667z" />
<glyph unicode="&#xe61e;" d="M981.333 42.666v42.667h-42.667v-42.667h-42.667v426.667h-213.333v-426.667h-42.667v853.333h-213.333v-853.333h-42.667v512h-42.667v42.667h-42.667v-42.667h-85.333v42.667h-42.667v-554.667h-85.333v938.667h-85.333v-1024h1024v85.333h-42.667zM298.667 42.666h-42.667v426.667h42.667v-426.667zM554.667 42.666h-42.667v768h42.667v-768zM810.667 42.666h-42.667v341.333h42.667v-341.333zM170.667 981.333h42.667v-42.667h-42.667zM298.667 981.333h42.667v-42.667h-42.667zM426.667 981.333h42.667v-42.667h-42.667zM554.667 981.333h42.667v-42.667h-42.667zM682.667 981.333h42.667v-42.667h-42.667zM810.667 981.333h42.667v-42.667h-42.667zM938.667 981.333h42.667v-42.667h-42.667zM938.667 853.333h42.667v-42.667h-42.667zM810.667 853.333h42.667v-42.667h-42.667zM682.667 853.333h42.667v-42.667h-42.667zM682.667 725.333h42.667v-42.667h-42.667zM810.667 725.333h42.667v-42.667h-42.667zM938.667 725.333h42.667v-42.667h-42.667zM938.667 597.248h42.667v-42.667h-42.667zM810.667 597.333h42.667v-42.667h-42.667zM682.667 597.333h42.667v-42.667h-42.667zM938.667 469.333h42.667v-42.667h-42.667zM938.667 341.333h42.667v-42.667h-42.667zM938.667 213.333h42.667v-42.667h-42.667zM298.667 853.333h42.667v-42.667h-42.667zM298.667 725.333h42.667v-42.667h-42.667zM170.667 725.333h42.667v-42.667h-42.667zM170.667 853.333h42.667v-42.667h-42.667z" />
<glyph unicode="&#xe61f;" d="M516.736 960l-474.069-232.619v-470.784l469.333-277.931 469.333 277.931v470.784l-464.597 232.619zM469.333 103.082l-341.333 202.155v284.8l341.333-168.661v-318.293zM147.797 678.144l369.664 186.283 369.664-186.283-369.664-182.656-369.664 182.656zM896 305.237l-384-227.413v329.472l384 182.741v-284.8z" />
<glyph unicode="&#xe620;" d="M0 853.333v-768h1024v768h-1024zM938.667 170.666h-853.333v597.333h853.333v-597.333zM618.667 450.389c47.061 0 85.333 38.229 85.333 85.333s-38.272 85.333-85.333 85.333-85.333-38.229-85.333-85.333 38.272-85.333 85.333-85.333zM576 578.389h85.333v-85.333h-85.333v85.333zM896 725.333h-768v-512h768v512zM170.667 428.16l258.091-73.728-258.091-45.568v119.296zM853.333 256h-682.667v9.6l682.667 120.448v-130.048zM853.333 428.714l-341.333-63.659-341.333 105.771v211.84h682.667v-253.952z" />
<glyph unicode="&#xe621;" d="M810.667 426.666v341.333h-341.333v170.667h-256v-170.667h-170.667v-256h170.667v-341.333h341.333v-170.667h256v170.667h170.667v256h-170.667zM426.667 682.666h298.667v-298.667h-85.333v213.333h-213.333v85.333zM554.667 512v-85.333h-85.333v85.333h85.333zM256 597.333h-128v85.333h128v-85.333zM725.333 85.333h-85.333v128h85.333v-128zM896 256h-597.333v597.333h85.333v-512h512v-85.333z" />
<glyph unicode="&#xe622;" d="M981.248 42.581h-85.248v42.752h-42.752v-42.752h-85.12v42.752h-42.752v-42.752h-85.248v42.752h-42.752v-42.752h-85.248v42.752h-42.752v-42.752h-85.248v42.752h-42.752v-42.752h-187.776l224.853 135.125 111.275 325.205 165.291-290.517 320.299 533.675-73.131 43.947-245.205-408.576-186.709 328.149-162.517-474.795-222.507-133.717v880.256h-85.248v-1024h1024v128h-42.752zM981.248 981.333h42.752v-42.752h-42.752zM853.248 981.333h42.752v-42.752h-42.752zM725.376 981.333h42.752v-42.752h-42.752zM597.376 981.333h42.752v-42.752h-42.752zM469.376 981.333h42.752v-42.752h-42.752zM341.376 981.333h42.752v-42.752h-42.752zM213.376 981.333h42.752v-42.752h-42.752zM85.376 981.333h42.752v-42.752h-42.752zM981.248 853.333h42.752v-42.752h-42.752zM853.248 853.333h42.752v-42.752h-42.752zM725.376 853.333h42.752v-42.752h-42.752zM597.376 853.333h42.752v-42.752h-42.752zM469.376 853.333h42.752v-42.752h-42.752zM341.376 853.333h42.752v-42.752h-42.752zM213.376 853.333h42.752v-42.752h-42.752zM85.376 853.333h42.752v-42.752h-42.752zM981.248 725.461h42.752v-42.752h-42.752zM725.376 725.461h42.752v-42.752h-42.752zM597.376 725.461h42.752v-42.752h-42.752zM341.376 725.461h42.752v-42.752h-42.752zM213.376 725.461h42.752v-42.752h-42.752zM85.376 725.461h42.752v-42.752h-42.752zM981.248 597.461h42.752v-42.752h-42.752zM597.376 597.461h42.752v-42.752h-42.752zM341.376 597.461h42.752v-42.752h-42.752zM213.376 597.461h42.752v-42.752h-42.752zM85.376 597.461h42.752v-42.752h-42.752zM981.248 469.376h42.752v-42.752h-42.752zM853.248 469.376h42.752v-42.752h-42.752zM213.376 469.376h42.752v-42.752h-42.752zM85.376 469.376h42.752v-42.752h-42.752zM981.248 341.376h42.752v-42.752h-42.752zM853.248 341.376h42.752v-42.752h-42.752zM469.376 341.376h42.752v-42.752h-42.752zM213.376 341.376h42.752v-42.752h-42.752zM85.376 341.376h42.752v-42.752h-42.752zM981.248 213.504h42.752v-42.752h-42.752zM853.248 213.504h42.752v-42.752h-42.752zM725.376 213.504h42.752v-42.752h-42.752zM469.376 213.504h42.752v-42.752h-42.752zM85.376 213.504h42.752v-42.752h-42.752z" />
<glyph unicode="&#xe623;" d="M810.667 938.709h-640v-896h341.333v298.667h298.667v597.333zM469.333 128.042h-213.333v213.333h213.333v-213.333zM469.333 384.042h-213.333v213.333h213.333v-213.333zM469.333 640.042h-213.333v213.333h213.333v-213.333zM725.333 384.042h-213.333v213.333h213.333v-213.333zM725.333 640.042h-213.333v213.333h213.333v-213.333zM598.4 251.392l85.333-260.736 32 137.515h133.333l-250.667 123.221z" />
<glyph unicode="&#xe624;" d="M896 683.392v85.333h-600.491l-49.323 139.904c-8.021 22.144-32.427 34.944-54.613 26.965s-33.749-34.261-25.728-56.448l38.997-110.464h-119.509v-85.333h-85.333v-384h128v-341.333h725.333v341.333h128v384h-85.333zM128 342.058h-85.333v298.667h42.667v-128h42.667v-170.667zM768 43.392h-554.667v256h132.096c8.832-42.667 32.341-42.667 60.075-42.667h170.667c27.733 0 51.243 0 60.075 42.667h131.755v-256zM384 319.914v0.085c0 11.733 9.6 21.333 21.333 21.333h170.837c11.733 0 21.333-9.6 21.333-21.333v-0.085c0-11.733-9.6-21.333-21.333-21.333h-170.837c-11.733 0-21.333 9.6-21.333 21.333zM768 342.058h-131.755c-8.832 42.667-32.341 42.667-60.075 42.667h-170.667c-27.733 0-51.243 0-60.075-42.667h-132.096v213.333h554.667v-213.333zM810.667 598.058h-640v85.333h640v-85.333zM938.667 342.058h-85.333v170.667h42.667v128h42.667v-298.667z" />
<glyph unicode="&#xe625;" d="M682.325 640v-384h42.667v384h-42.667zM255.659 896v-170.667h-170.667v-597.333h170.667v-42.667c0-23.467 20.992-42.667 44.416-42.667h595.584v853.333h-640zM298.325 298.666h-42.667v256h42.667v-256zM810.325 213.333h-42.667v-42.667h42.667v-42.667h-469.333v42.667h42.667v42.667h-42.667v384h-128v-341.333h85.333v-42.667h-128v426.667h170.667v42.667h469.333v-469.333zM810.325 725.333h-469.333v85.333h469.333v-85.333zM724.992 170.666h-42.667v42.667h42.667v-42.667zM639.659 170.666h-42.667v42.667h42.667v-42.667zM554.325 170.666h-42.667v42.667h42.667v-42.667zM468.992 170.666h-42.667v42.667h42.667v-42.667zM596.992 640v-384h42.667v384h-42.667z" />
<glyph unicode="&#xe626;" d="M85.333 981.333v-1024h853.333v1024h-853.333zM853.333 42.666h-682.667v853.333h682.667v-853.333zM810.667 810.666h-128v42.667h-341.333v-42.667h-128v-725.333h597.333v725.333zM384 810.666h256v-42.667h-256v42.667zM768 128h-512v640h85.333v-42.667h341.333v42.667h85.333v-640zM298.667 597.333h384v85.333h-384v-85.333zM298.667 512h384v42.667h-384v-42.667zM298.667 426.666h384v42.667h-384v-42.667zM298.667 341.333h384v42.667h-384v-42.667zM298.667 256h170.667v42.667h-170.667v-42.667z" />
<glyph unicode="&#xe627;" d="M895.872 267.008c0 0-298.069 299.136-298.624 330.325v42.752h85.504v256h-384.085v-256h85.333l0.171-42.752c-0.555-31.189-298.624-330.325-298.624-330.325-56.192-63.061-44.416-114.603-34.432-137.899s48.171-86.443 75.819-86.443h727.552c27.648 0 65.792 63.104 75.776 86.4s21.803 74.88-34.389 137.941zM851.883 162.688c-3.755-8.704-13.312-24.235-21.333-34.688h-679.68c-8.021 10.453-17.579 25.984-21.291 34.688-6.144 14.251 8.192 34.304 18.261 45.909 320.555 321.792 321.024 350.635 321.664 388.693v127.957l-85.632 0.085 0.128 85.248h213.248l0.128-85.248h-85.376l-0.043-129.493c0.64-36.565 1.109-65.451 321.664-387.243 10.027-11.605 24.32-31.659 18.261-45.909zM512 469.333h-42.752l-256-256v-42.752h554.752v42.752l-256 256zM426.752 341.333l42.496 85.248h42.752l42.752-85.248h-128z" />
<glyph unicode="&#xe628;" d="M931.157 350.506c-3.413 2.005-6.912 3.84-10.539 5.675l-7.936 5.163-173.952 122.155 50.517 37.675c47.744-20.267 111.147 19.84 138.581 37.077 69.675 43.989 90.496 136.405 46.507 205.995-40.107 63.488-120.491 86.485-187.179 56.661l-0.725 1.28c-37.675 59.648-116.907 77.568-176.597 39.936-39.168-24.747-67.84-95.104-36.565-174.507l-60.587-45.397-69.333 48.683c28.757 80.341-2.005 149.76-41.899 173.312-60.843 35.84-139.52 15.488-175.232-45.312l-0.853-1.237c-67.541 27.605-147.2 2.176-185.344-62.507-41.771-70.912-18.133-162.645 52.821-204.501 27.947-16.427 92.672-54.485 139.733-32.768l59.008-41.344-177.408-132.821-7.765-5.376c-3.499-1.92-6.912-3.84-10.24-6.016-69.717-43.904-90.496-136.405-46.592-205.995 43.989-69.589 136.405-90.496 205.995-46.507 33.323 20.992 56.32 53.675 65.237 91.648l196.779 146.901 193.835-135.68c10.112-37.675 34.133-69.589 68.053-89.6 70.912-41.813 162.731-18.091 204.459 52.821 41.899 70.997 18.133 162.731-52.779 204.587zM590.933 587.264l96.768 71.68-22.741 36.096c-32.085 50.731-16.299 89.344-9.515 94.933 19.84 12.587 46.251 6.571 58.837-13.269l45.568-72.149 54.101 34.176c29.781 18.816 69.419 9.899 88.32-19.925 18.816-29.824 9.813-69.504-20.011-88.32-32.683-20.651-49.152-27.435-57.472-28.843l-19.371 30.677-152.021-110.507-79.445 52.821 16.981 12.629zM396.459 335.018l-155.435-112.981-1.792-21.077c-1.664-20.48-12.331-38.315-29.184-48.896-29.824-18.816-69.504-9.899-88.32 19.925s-9.899 69.419 19.925 88.235c3.627 2.347 7.509 4.267 11.52 5.76l42.667 28.501 190.251 141.013 77.397-51.669-67.029-48.811zM910.507 189.354c-17.92-30.421-57.301-40.576-87.723-22.656-17.152 10.155-28.288 27.563-30.635 48l-2.517 21.077-576.64 392.704-18.475-31.403c-8.363 1.152-25.003 7.509-58.368 27.093-30.379 18.005-40.491 57.259-22.656 87.68 18.005 30.421 57.259 40.576 87.637 22.656l98.56 41.003c11.904 20.352 38.187 27.008 58.411 15.104 6.827-5.333 23.851-43.52-6.571-95.147l-21.717-36.779 502.827-349.141 43.52-27.179c4.096-1.323 8.021-3.243 11.605-5.333 30.464-18.048 40.576-57.301 22.741-87.68z" />
<glyph unicode="&#xe629;" d="M874.069 831.36c-99.84 99.797-262.229 99.797-362.112 0l-361.984-362.027c-99.797-99.84-99.84-262.229 0-362.027 99.84-99.797 262.187-99.797 362.027 0l362.069 362.027c99.755 99.84 99.84 262.229 0 362.027zM813.739 771.029c66.517-66.56 66.517-174.848 0-241.365l-181.077-180.992-241.323 241.323 180.992 181.035c66.603 66.56 174.848 66.56 241.408 0z" />
<glyph unicode="&#xe62a;" d="M708.651 487.040l-184.789 39.68 85.291 397.056-293.803-439.552 148.907-32-93.909-437.291 338.304 472.107z" />
<glyph unicode="&#xe62b;" d="M886.827 845.098c-257.749 36.651-515.029 36.736-773.376-0.085-66.773-9.984-113.451-73.173-113.451-140.928v-469.333c0-67.755 38.741-130.987 105.899-141.056 128.896-18.347 252.416-27.605 382.635-27.605s273.323 9.301 402.517 27.648c66.859 10.027 132.949 73.259 132.949 141.013v469.248c0 67.755-69.931 130.987-137.173 141.099zM85.333 704c0 25.813 7.595 52.821 32.597 56.576 112.725 16 221.269 24.533 334.037 26.112l-167.211-296.789h-199.424v214.101zM938.667 234.752c0-25.813-38.741-52.779-63.829-56.533-249.813-35.541-499.584-35.456-748.757-0.043-25.429 3.797-40.747 30.72-40.747 56.576v169.813h250.069l75.563 117.675 36.224-306.347 219.392 188.672h272.085v-169.813zM938.667 489.898h-302.421l-121.941-120.021-46.549 417.109c6.997 0.043 13.781 0.384 20.779 0.384 126.208 0 265.301-9.045 389.888-26.709 25.429-3.84 60.245-30.805 60.245-56.576v-214.187zM682.752 682.752h42.496v-42.752h-42.496zM768 682.752h42.752v-42.752h-42.752z" />
<glyph unicode="&#xe62c;" d="M511.957 981.333c-214.485 0-388.395-173.909-388.395-388.437 0-214.571 305.067-635.563 388.437-635.563 61.653 0 388.48 420.992 388.48 635.563-0.043 214.528-173.952 388.437-388.523 388.437zM510.208 401.749c-109.013 0-197.333 88.32-197.333 197.333s88.32 197.333 197.333 197.333 197.333-88.32 197.333-197.333-88.32-197.333-197.333-197.333z" />
<glyph unicode="&#xe62d;" d="M896 725.333v128h-896v-640h128v-128h896v640h-128zM128 298.666h-42.667v469.333h725.333v-42.667h-682.667v-426.667zM938.667 170.666h-725.333v469.333h725.333v-469.333z" />
<glyph unicode="&#xe62e;" d="M256 298.666h512v256h-512v-256zM298.667 512h426.667v-170.667h-426.667v170.667zM256 640h512v-42.667h-512zM256 256h213.333v-42.667h-213.333zM256 170.666h128v-42.667h-128zM428.16 168.149h42.667v-42.667h-42.667zM554.667 256h213.333v-42.667h-213.333zM554.667 170.666h213.333v-42.667h-213.333zM853.333 810.666v40.149c0 49.451-42.581 87.851-147.84 87.851h-512c-70.571 0-108.16-59.904-108.16-130.517v-725.333c0-70.571 37.589-125.483 108.16-125.483h597.333c70.571 0 62.507 0 147.84 0v853.333h-85.333zM853.333 42.666h-659.84c-23.509 0-22.827 16.683-22.827 40.149v725.333c0 23.509-0.683 45.184 22.827 45.184h574.507v-42.667h-512v-85.333h597.333v-682.667z" />
<glyph unicode="&#xe62f;" d="M777.173 810.666h-134.827l-68.267 85.333h-62.080v42.667h-42.667v-42.667h-44.928l-56.917-85.333h-187.648c-70.571 0-137.173-38.571-137.173-109.184v-512c0-70.571 85.333-146.816 128-146.816v-85.333h128v85.333h341.333v-85.333h128v85.333c85.333 0 128 76.245 128 146.816v512c0 70.613-48.256 109.184-118.827 109.184zM447.232 853.333h106.325l34.091-42.667h-168.875l28.459 42.667zM810.667 189.482c0-23.509-9.984-61.483-33.493-61.483h-597.333c-23.552 0-51.84 37.973-51.84 61.483v512c0 23.552 28.288 23.851 51.84 23.851h597.333c23.509 0 33.493-0.299 33.493-23.851v-512zM170.667 298.666h597.333v341.333h-597.333v-341.333zM213.333 597.333h512v-256h-512v256zM426.624 170.666h85.248v85.333h-85.248v-85.333z" />
<glyph unicode="&#xe630;" d="M907.776 682.666l-71.083 213.333h-111.488v42.667h-256v-42.667h-291.328l-71.083-213.333h63.915l85.333-725.333h502.485l85.333 725.333h63.915zM239.403 810.666h315.179v42.667h85.333v-42.667h135.339l14.251-42.667h-564.309l14.208 42.667zM271.744 554.666h471.211l-25.088-213.333h-421.035l-25.088 213.333zM331.947 42.666l-30.123 256h410.965l-30.080-256h-350.763zM747.947 597.333h-481.28l-10.027 85.333h501.333l-10.027-85.333z" />
<glyph unicode="&#xe631;" d="M853.333 640v128h-853.333v-512h128v-128h853.333v512h-128zM128 341.333h-42.667v341.333h682.667v-42.667h-640v-298.667zM896 213.333h-682.667v341.333h682.667v-341.333zM256 512v-256h597.333v256h-597.333zM298.667 298.666v170.667h139.989c-7.381-12.587-11.904-27.093-11.904-42.667v-85.333c0-15.573 4.523-30.037 11.947-42.667h-140.032zM640 362.666c0-35.328-28.672-64-64-64h-42.667c-35.328 0-64 28.672-64 64v42.667c0 35.328 28.672 64 64 64h42.667c35.328 0 64-28.672 64-64v-42.667zM810.667 298.666h-139.819c7.381 12.629 11.904 27.093 11.904 42.667v85.333c0 15.573-4.523 30.080-11.904 42.667h139.819v-170.667z" />
<glyph unicode="&#xe632;" d="M1023.403 469.333l-113.408 130.603 15.744 172.885-167.765 38.272-87.936 149.419-158.037-68.821-158.123 68.821-87.851-149.419-167.808-38.315 15.701-172.843-113.323-130.603 113.323-130.603-15.701-172.928 167.851-38.229 87.936-149.419 157.995 68.736 158.037-68.693 87.851 149.333 167.893 38.229-15.744 173.013 113.365 130.56zM704.811 201.258l-68.821-117.077-123.989 53.845-123.947-53.888-68.907 117.077-131.669 30.123 12.331 135.509-88.96 102.485 88.96 102.357-12.331 135.595 131.755 30.123 68.736 116.992 124.032-53.845 123.947 53.888 68.821-116.992 131.669-30.123-12.331-135.509 88.96-102.485-88.96-102.443 12.331-135.595-131.627-30.037zM512 741.504c-148.651 0-269.611-122.112-269.611-272.171 0-150.101 120.96-272.171 269.611-272.171s269.611 122.069 269.611 272.171c0 150.059-120.96 272.171-269.611 272.171zM512 239.061c-125.781 0-228.139 103.296-228.139 230.272s102.357 230.272 228.139 230.272c125.739 0 228.139-103.296 228.139-230.272s-102.4-230.272-228.139-230.272z" />
<glyph unicode="&#xe633;" d="M469.333 640h-298.667v-341.333h298.667v341.333zM426.667 362.624c0 35.328-47.744 63.957-106.667 63.957s-106.667-28.629-106.667-63.957v234.709h213.333v-234.709zM256 490.581c0-35.346 28.654-64 64-64s64 28.654 64 64c0 35.346-28.654 64-64 64-35.346 0-64-28.654-64-64zM935.637 810.666h-853.333c-47.147 0-82.304-34.432-82.304-81.493v-512c0-47.189 35.157-89.173 82.304-89.173h853.333c47.104 0 88.363 41.984 88.363 89.173v512c0 47.061-41.259 81.493-88.363 81.493zM938.667 213.333h-853.333v512h853.333v-512zM554.667 640h298.667v-85.333h-298.667zM554.667 512h298.667v-42.667h-298.667zM554.667 426.666h298.667v-42.667h-298.667zM554.667 341.333h128v-42.667h-128zM725.248 341.333h42.752v-42.752h-42.752z" />
<glyph unicode="&#xe634;" d="M42.667 853.333v-725.333h384v-85.333h554.667v810.667h-938.667zM469.333 213.333h-341.333v42.667h341.333v-42.667zM896 128h-384v42.667h384v-42.667zM896 725.333h-42.667v-42.667h42.667v-469.333h-384v256h-42.667v-170.667h-341.333v215.382c31.701 2.432 116.181 15.445 116.181 84.779l-116.181-77.44v246.613h768v-42.667zM884.181 513.493l-128 85.333c0-85.333 128-85.333 128-85.333zM810.667 725.333h-42.667v-42.667h42.667v42.667zM725.333 725.333h-42.667v-42.667h42.667v42.667zM640 725.333h-42.667v-42.667h42.667v42.667zM554.667 725.333h-42.667v-42.667h42.667v42.667zM469.333 725.333h-42.667v-42.667h42.667v42.667zM384 725.333h-42.667v-42.667h42.667v42.667zM298.667 725.333h-42.667v-42.667h42.667v42.667zM213.333 725.333h-42.667v-42.667h42.667v42.667z" />
<glyph unicode="&#xe635;" d="M298.667 213.333c0-23.564 19.103-42.667 42.667-42.667s42.667 19.103 42.667 42.667c0 23.564-19.103 42.667-42.667 42.667-23.564 0-42.667-19.103-42.667-42.667zM426.667 213.333c0-23.564 19.103-42.667 42.667-42.667s42.667 19.103 42.667 42.667c0 23.564-19.103 42.667-42.667 42.667-23.564 0-42.667-19.103-42.667-42.667zM554.667 213.333c0-23.564 19.103-42.667 42.667-42.667 23.564 0 42.667 19.103 42.667 42.667 0 23.564-19.103 42.667-42.667 42.667-23.564 0-42.667-19.103-42.667-42.667zM256 320c0-11.782 9.551-21.333 21.333-21.333s21.333 9.551 21.333 21.333c0 11.782-9.551 21.333-21.333 21.333-11.782 0-21.333-9.551-21.333-21.333zM341.333 320c0-11.782 9.551-21.333 21.333-21.333 11.782 0 21.333 9.551 21.333 21.333 0 11.782-9.551 21.333-21.333 21.333-11.782 0-21.333-9.551-21.333-21.333zM426.667 320c0-11.782 9.551-21.333 21.333-21.333 11.782 0 21.333 9.551 21.333 21.333 0 11.782-9.551 21.333-21.333 21.333-11.782 0-21.333-9.551-21.333-21.333zM512 320c0-11.782 9.551-21.333 21.333-21.333 11.782 0 21.333 9.551 21.333 21.333 0 11.782-9.551 21.333-21.333 21.333-11.782 0-21.333-9.551-21.333-21.333zM597.333 320c0-11.782 9.551-21.333 21.333-21.333s21.333 9.551 21.333 21.333c0 11.782-9.551 21.333-21.333 21.333-11.782 0-21.333-9.551-21.333-21.333zM640 405.333c0-11.782 9.551-21.333 21.333-21.333 11.782 0 21.333 9.551 21.333 21.333 0 11.782-9.551 21.333-21.333 21.333-11.782 0-21.333-9.551-21.333-21.333zM554.667 405.333c0-11.782 9.551-21.333 21.333-21.333 11.782 0 21.333 9.551 21.333 21.333 0 11.782-9.551 21.333-21.333 21.333-11.782 0-21.333-9.551-21.333-21.333zM469.333 405.333c0-11.782 9.551-21.333 21.333-21.333 11.782 0 21.333 9.551 21.333 21.333 0 11.782-9.551 21.333-21.333 21.333-11.782 0-21.333-9.551-21.333-21.333zM384 405.333c0-11.782 9.551-21.333 21.333-21.333s21.333 9.551 21.333 21.333c0 11.782-9.551 21.333-21.333 21.333-11.782 0-21.333-9.551-21.333-21.333zM298.667 405.333c0-11.782 9.551-21.333 21.333-21.333 11.782 0 21.333 9.551 21.333 21.333 0 11.782-9.551 21.333-21.333 21.333-11.782 0-21.333-9.551-21.333-21.333zM213.333 405.333c0-11.782 9.551-21.333 21.333-21.333s21.333 9.551 21.333 21.333c0 11.782-9.551 21.333-21.333 21.333-11.782 0-21.333-9.551-21.333-21.333zM836.096 709.632l38.187 76.331-299.947 157.696-105.003-260.949h-341.333v-640.043h85.333v-85.333h426.667v85.333h128v640.043h-213.333l69.461 140.629 211.968-113.707zM597.333 42.666h-298.667v42.667h298.667v-42.667zM682.667 597.376v-469.376h-469.333v42.667c23.595 0 42.667 19.072 42.667 42.667s-19.072 42.667-42.667 42.667v341.376h469.333z" />
<glyph unicode="&#xe636;" d="M742.741 897.408h-461.483l-281.259-278.741 512-577.408 512 577.408-281.259 278.741zM921.344 596.138l-0.597 2.603h-379.819l182.101 196.651 198.315-199.253zM443.648 239.53l-299.648 316.544h197.333l-19.84-9.515 122.155-307.029zM364.245 556.074h295.424l-147.669-369.237-147.755 369.237zM682.667 556.074h197.248l-299.648-316.544 122.155 307.029-19.755 9.515zM512 630.229l-166.997 181.845h333.909l-166.912-181.845zM300.928 793.77l182.101-195.029h-379.861l-0.512-0.981 198.272 196.011z" />
<glyph unicode="&#xe637;" d="M768 682.666v128.171l-128 127.829h-256l-128-127.829v-128.171h-128v-725.333h768v725.333h-128zM384 853.333h256l42.667-42.667h-341.333l42.667 42.667zM682.667 768v-85.333h-42.667v85.333h42.667zM597.333 768v-85.333h-170.667v85.333h170.667zM341.333 768h42.667v-85.333h-42.667v85.333zM810.667 42.666h-597.333v554.667h597.333v-554.667z" />
<glyph unicode="&#xe638;" d="M170.667 298.666h128v128h-128v-128zM213.333 384h42.667v-42.667h-42.667v42.667zM341.333 298.666h128v128h-128v-128zM384 384h42.667v-42.667h-42.667v42.667zM341.333 128h128v128h-128v-128zM384 213.333h42.667v-42.667h-42.667v42.667zM170.667 128h128v128h-128v-128zM213.333 213.333h42.667v-42.667h-42.667v42.667zM512 298.666h128v128h-128v-128zM554.667 384h42.667v-42.667h-42.667v42.667zM426.667 554.666h42.667v42.667h-42.667v-42.667zM341.333 554.666h42.667v42.667h-42.667v-42.667zM170.667 469.333h682.667v384h-682.667v-384zM213.333 810.666h597.333v-298.667h-597.333v298.667zM853.333 981.333h-682.667c-70.699 0-128-57.301-128-128v-768c0-70.699 57.301-128 128-128h682.667c70.699 0 128 57.301 128 128v768c0 70.699-57.301 128-128 128zM896 85.333c0-23.595-19.072-42.667-42.667-42.667h-682.667c-23.595 0-42.667 19.072-42.667 42.667v768c0 23.595 19.072 42.667 42.667 42.667h682.667c23.595 0 42.667-19.072 42.667-42.667v-768zM512 128h128v128h-128v-128zM554.667 213.333h42.667v-42.667h-42.667v42.667zM682.667 128h170.667v298.667h-170.667v-298.667zM725.333 384h85.333v-213.333h-85.333v213.333zM256 554.666h42.667v42.667h-42.667v-42.667z" />
<glyph unicode="&#xe639;" d="M938.667 682.666h-85.333v25.173c0 46.976-38.229 102.827-85.333 102.827h-682.667c-47.104 0-85.333-55.851-85.333-102.827v-384c0-47.104 38.229-67.84 85.333-67.84h42.667v-102.827c0-47.104 38.229-67.84 85.333-67.84h725.333c47.104 0 85.333 20.736 85.333 67.84v426.667c0 46.976-38.229 102.827-85.333 102.827zM128 341.333h-42.667v170.667h42.667v-170.667zM139.861 640h-54.528v85.333h682.667v-42.667h-554.667c-31.403 0-58.667-42.667-73.472-42.667zM213.333 170.666v426.667h725.333l0.085-426.667h-725.419zM682.667 298.666h213.333v170.667h-213.333v-170.667zM725.333 426.666h128v-85.333h-128v85.333zM341.333 213.333h170.667v42.667h-170.667v-42.667zM256 469.333h298.667v85.333h-298.667v-85.333zM554.752 213.333h42.496v42.667h-42.496v-42.667zM256 213.333h42.496v42.667h-42.496v-42.667z" />
<glyph unicode="&#xe63a;" d="M896 853.333h-768c-70.571 0-128-57.429-128-128v-469.333c0-70.571 57.429-128 128-128h42.667l42.667-85.333h42.667l42.667 85.333h426.667l42.667-85.333h42.667l42.667 85.333h42.667c70.571 0 128 57.429 128 128v469.333c0 70.571-57.429 128-128 128zM938.667 256c0-23.552-19.157-42.667-42.667-42.667h-768c-23.509 0-42.667 19.115-42.667 42.667v469.333c0 23.509 19.157 42.667 42.667 42.667h768c23.509 0 42.667-19.157 42.667-42.667v-469.333zM128 256h640v469.333h-640v-469.333zM170.667 682.666h554.667v-384h-554.667v384zM810.667 682.666h42.667v-42.667h-42.667zM853.333 640h42.667v-42.667h-42.667zM810.667 597.333h42.667v-42.667h-42.667zM853.333 554.666h42.667v-42.667h-42.667zM810.667 426.666h85.333v-42.667h-85.333zM810.667 341.333h85.333v-42.667h-85.333z" />
<glyph unicode="&#xe63b;" d="M533.291 597.333c-106.027 0-191.957-85.973-191.957-192s85.931-192 191.957-192c105.984 0 191.957 85.973 191.957 192s-85.973 192-191.957 192zM458.965 534.058c21.931 12.757 47.147 20.608 74.368 20.608 76.416 0 138.923-57.941 147.584-132.139-73.813 56.832-161.067 91.904-221.952 111.531zM960 768h-206.251l-28.416 85.333h-426.667l-28.416-85.333h-163.584c-47.104 0-106.667-38.229-106.667-85.333v-512c0-47.104 59.563-85.333 106.667-85.333h853.333c47.104 0 64 38.229 64 85.333v512c0 47.104-16.896 85.333-64 85.333zM533.333 128c-153.173 0-277.333 124.16-277.333 277.333s124.16 277.333 277.333 277.333 277.333-124.16 277.333-277.333-124.16-277.333-277.333-277.333zM938.667 597.333h-85.333v85.333h85.333v-85.333z" />
<glyph unicode="&#xe63c;" d="M853.333 298.666c-51.2 0-96.683-23.125-128-58.965l-312.491 156.245c8.491 22.955 13.824 47.488 13.824 73.387s-5.333 50.432-13.824 73.387l312.491 156.245c31.317-35.84 76.8-58.965 128-58.965 94.123 0 170.667 76.587 170.667 170.667s-76.544 170.667-170.667 170.667-170.667-76.587-170.667-170.667c0-12.245 1.408-24.149 3.883-35.669l-318.72-159.36c0.128-0.128 0.171-0.299 0.299-0.384-38.912 41.259-93.696 67.413-154.795 67.413-117.632 0-213.333-95.701-213.333-213.333s95.701-213.333 213.333-213.333c61.099 0 115.883 26.155 154.795 67.413-0.128-0.085-0.171-0.256-0.299-0.384l318.72-159.36c-2.475-11.52-3.883-23.424-3.883-35.669 0-94.080 76.544-170.667 170.667-170.667s170.667 76.587 170.667 170.667-76.544 170.667-170.667 170.667zM853.333 896c47.061 0 85.333-38.229 85.333-85.333s-38.272-85.333-85.333-85.333-85.333 38.229-85.333 85.333 38.272 85.333 85.333 85.333zM213.333 341.333c-70.571 0-128 57.429-128 128s57.429 128 128 128 128-57.429 128-128-57.429-128-128-128zM853.333 42.666c-47.061 0-85.333 38.229-85.333 85.333s38.272 85.333 85.333 85.333 85.333-38.229 85.333-85.333-38.272-85.333-85.333-85.333z" />
<glyph unicode="&#xe63d;" d="M330.24 256l523.093-170.667v768l-523.093-170.667h-159.573c-70.571 0-128-57.429-128-128v-170.667c0-70.571 57.429-128 128-128h18.219c-0.043-1.067-0.128-2.005-0.128-3.072-0.043-27.264 2.773-64.597 15.616-102.827 6.912-18.901 15.531-38.187 27.349-55.168 5.888-8.491 11.563-16.896 18.56-23.851 6.699-7.168 12.843-14.421 19.84-19.584 13.312-11.563 25.685-19.755 34.816-24.405 9.131-5.077 14.293-8.064 14.293-8.064l1.579-0.896c8.021-4.437 17.024-7.424 26.752-8.491 39.253-4.437 74.624 23.851 79.019 63.104s-23.893 74.581-63.104 79.104c0 0-2.475 0.171-6.699 0.683-4.651 0-10.837 0.981-18.219 3.243-4.139 0.597-7.68 2.816-12.075 4.48-4.565 1.493-8.704 4.48-13.397 7.424-9.429 5.76-18.603 14.592-27.691 24.576-16.085 18.901-28.715 43.179-37.035 63.744h81.877zM725.333 737.237l42.667 14.251v-564.352l-42.667 12.928v537.173zM384 623.018l298.667 99.925v-510.037l-298.667 102.741v307.371zM170.667 341.333c-23.552 0-42.667 19.157-42.667 42.667v170.667c0 23.509 19.115 42.667 42.667 42.667h170.667v-256h-170.667zM896 597.333h42.667v-256h-42.667z" />
<glyph unicode="&#xe63e;" d="M1010.176 128.426c-71.552 171.008-209.664 250.581-316.715 287.531 47.787 65.579 73.941 161.792 74.965 279.467 1.749 198.656-162.048 252.629-248.875 253.355-86.869 0.768-251.563-50.347-253.355-249.003-1.024-117.632 23.467-214.229 70.059-280.704-107.648-34.987-247.253-112.299-321.707-281.941l-17.621-40.021 40.491-16.64c8.832-3.541 218.709-88.32 473.685-90.539 255.019-2.261 466.347 78.805 475.264 82.219l40.747 15.872-16.939 40.405zM518.528 863.445c17.024-0.341 165.973-7.595 164.565-167.296-1.109-127.829-35.883-225.024-95.232-266.709l-73.429-51.541-72.363 52.779c-58.667 42.752-91.691 140.544-90.539 268.373 1.408 159.744 150.485 164.352 166.997 164.395zM511.872 75.221c-172.629 1.493-326.315 44.672-398.549 68.565 78.080 136.747 210.389 190.165 311.979 210.645l89.131 17.963 88.789-19.456c101.248-22.315 232.619-78.037 308.352-216.064-72.491-22.699-226.56-63.189-399.701-61.653z" />
<glyph unicode="&#xe63f;" d="M1006.421 129.706c-62.251 143.317-206.549 226.56-311.296 262.144 64.171 52.437 102.059 151.339 102.059 280.875 0 172.16-143.915 217.685-220.032 217.685-12.245 0-26.325-1.365-41.173-4.053-40.875 36.736-94.933 52.309-137.941 52.309-79.531 0-197.845-52.139-197.845-195.712 0-114.261 33.365-201.771 89.984-248.875-89.088-23.296-210.432-80.811-272.597-223.957l-17.579-40.491 41.088-16.213c3.669-1.451 54.187-20.821 130.645-37.931-8.747-14.848-16.981-29.824-23.936-45.781l-17.621-40.491 41.088-16.213c7.595-2.944 187.776-73.003 405.845-73.003s398.251 70.059 405.845 73.003l41.045 16.213-17.579 40.491zM711.851 672.682c0-146.389-51.627-237.312-134.699-237.312s-134.699 90.923-134.699 237.312c0 124.587 112.427 132.096 134.485 132.352 22.485-0.256 134.912-7.765 134.912-132.352zM398.037 853.333c4.309 0 21.376-0.725 40.875-7.040-45.653-32.853-81.792-87.296-81.792-173.611 0-46.891 5.077-89.685 14.421-127.829-62.805 20.011-86.016 111.573-86.016 198.101 0 103.723 93.952 110.165 112.512 110.379zM398.037 424.704c0.512 0 12.373-0.256 30.976-2.645 18.603-22.955 40.491-40.704 65.152-52.864-67.157-13.44-162.816-45.525-240.384-122.24-55.893 9.003-103.765 21.077-135.893 30.72 91.605 144.213 271.957 146.987 280.149 147.029zM577.109 85.333c-139.776 0-280.192 32-344.363 51.797 10.112 29.312 42.069 68.053 53.163 81.365 119.168 115.413 289.451 117.845 291.072 117.845 0.341 0 31.104-0.469 74.88-9.216 76.032-19.2 194.133-89.387 254.891-189.909-64.128-19.797-189.653-51.883-329.643-51.883z" />
<glyph unicode="&#xe640;" d="M512 341.333c0 0-341.333 0-469.333-298.667 0 0 213.76-85.333 469.333-85.333s469.333 85.333 469.333 85.333c-128 298.667-469.333 298.667-469.333 298.667zM512 384c128 0 213.333 128 213.333 341.333s-213.333 213.333-213.333 213.333-213.333 0-213.333-213.333 85.333-341.333 213.333-341.333z" />
<glyph unicode="&#xe641;" d="M640 368.512c0 0-263.765 0-362.667-230.827 0 0 165.163-65.92 362.667-65.92s362.667 65.92 362.667 65.92c-98.901 230.827-362.667 230.827-362.667 230.827zM640 401.408c98.901 0 164.821 98.901 164.821 263.808s-164.821 164.864-164.821 164.864-164.821 0-164.821-164.864 65.92-263.808 164.821-263.808zM320 513.92c32.512 0 60.416 13.483 82.56 37.76-8.192 33.152-12.715 71.040-12.715 113.536 0 63.36 24.363 102.229 54.357 126.208-32.683 75.307-124.203 75.477-124.203 75.477s-135.765 0-135.765-135.765c0-135.765 54.315-217.216 135.765-217.216zM448 407.509l-4.608 53.675c-66.475 25.429-123.392 25.6-123.392 25.6s-217.216 0-298.667-190.080c0 0 105.003-41.856 240.853-52.053 118.315 123.861 185.813 162.859 185.813 162.859z" />
<glyph unicode="&#xe642;" d="M469.333 225.152v-97.152h85.333v97.152c25.429 14.805 42.667 41.984 42.667 73.515 0 47.104-38.229 85.333-85.333 85.333s-85.333-38.229-85.333-85.333c0-31.488 17.237-58.709 42.667-73.515zM810.667 554.666v170.667c0 85.333-85.333 213.333-298.667 213.333s-298.667-128-298.667-213.333v-298.667h85.333v341.333c0 0 42.667 85.333 213.333 85.333s213.333-85.333 213.333-85.333v-213.333h-341.333v-85.333h426.667v-384c0-23.509-19.115-42.667-42.667-42.667h-512c-23.552 0-42.667 19.157-42.667 42.667v256h-85.333v-256c0-70.571 57.429-128 128-128h512c70.571 0 128 57.429 128 128v469.333h-85.333z" />
<glyph unicode="&#xe643;" d="M810.667 981.333c-170.667 0-213.333-128-213.333-213.333v-213.333h-597.333v-469.333c0-70.571 57.429-128 128-128h512c70.571 0 128 57.429 128 128v469.333h-85.333v256c0 0 0 85.333 128 85.333s128-85.333 128-85.333v-170.667h85.333v128c0 85.333-42.667 213.333-213.333 213.333zM682.667 85.333c0-23.509-19.115-42.667-42.667-42.667h-512c-23.552 0-42.667 19.157-42.667 42.667v384h597.333v-384zM341.333 225.152v-97.152h85.333v97.152c25.429 14.805 42.667 41.984 42.667 73.515 0 47.104-38.229 85.333-85.333 85.333s-85.333-38.229-85.333-85.333c0-31.488 17.237-58.709 42.667-73.515z" />
<glyph unicode="&#xe644;" d="M810.667 597.333v128c0 85.333-85.333 213.333-298.667 213.333s-298.667-128-298.667-213.333v-128h-85.333v-469.333c0-70.571 57.429-128 128-128h512c70.571 0 128 57.429 128 128v469.333h-85.333zM298.667 768c0 0 42.667 85.333 213.333 85.333s213.333-85.333 213.333-85.333v-170.667h-426.667v170.667zM810.667 128c0-23.509-19.115-42.667-42.667-42.667h-512c-23.552 0-42.667 19.157-42.667 42.667v384h597.333v-384zM469.333 267.818v-97.152h85.333v97.152c25.429 14.805 42.667 41.984 42.667 73.515 0 47.104-38.229 85.333-85.333 85.333s-85.333-38.229-85.333-85.333c0-31.488 17.237-58.709 42.667-73.515z" />
<glyph unicode="&#xe645;" d="M490.667 853.333c-223.488 0-405.333-181.845-405.333-405.333s181.845-405.333 405.333-405.333 405.333 181.845 405.333 405.333-181.845 405.333-405.333 405.333zM170.667 448c0 176.469 143.531 320 320 320 65.109 0 125.696-19.669 176.299-53.205l-443.093-443.093c-33.536 50.603-53.205 111.189-53.205 176.299zM490.667 128c-65.109 0-125.696 19.669-176.299 53.205l443.093 443.093c33.536-50.603 53.205-111.189 53.205-176.299 0-176.469-143.531-320-320-320z" />
<glyph unicode="&#xe646;" d="M490.667 384c35.2 0 64 38.4 64 85.333v341.333c0 46.933-28.8 85.333-64 85.333s-64-38.4-64-85.333v-341.333c0-46.933 28.8-85.333 64-85.333zM640 781.312v-93.611c101.333-53.717 170.667-159.915 170.667-282.368 0-176.469-143.531-320-320-320s-320 143.531-320 320c0 122.453 69.333 228.651 170.667 282.368v93.611c-149.675-59.563-256-205.312-256-375.979 0-223.488 181.845-405.333 405.333-405.333s405.333 181.845 405.333 405.333c0 170.667-106.325 316.416-256 375.979z" />
<glyph unicode="&#xe647;" d="M512 981.333c-282.752 0-512-229.248-512-512s229.248-512 512-512 512 229.248 512 512-229.248 512-512 512zM512 42.666c-235.264 0-426.667 191.403-426.667 426.667s191.403 426.667 426.667 426.667 426.667-191.403 426.667-426.667-191.403-426.667-426.667-426.667zM303.275 739.456c0 0-0.128-0.128-0.171-0.128 0-0.043 0-0.043 0-0.043-0.085-0.043-0.128-0.128-0.171-0.128-0.043-0.043-0.043-0.043-0.085-0.085-0.085-0.043-0.213-0.171-0.299-0.213-0.043-0.043-0.043-0.043-0.043-0.043-0.085-0.085-0.128-0.085-0.171-0.128l-0.085-0.043c-0.043-0.043-0.085-0.043-0.128-0.128-0.043 0-0.128-0.043-0.171-0.085 0 0-0.043-0.043-0.085-0.085-0.085-0.043-0.128-0.085-0.213-0.171 0 0-0.085-0.043-0.085-0.085-0.085 0-0.128-0.085-0.171-0.085 0 0-0.043-0.085-0.085-0.085l-0.128-0.128c-0.043-0.043-0.043-0.043-0.043-0.043-0.128-0.085-0.213-0.171-0.299-0.213v-0.043c-0.085-0.043-0.171-0.085-0.213-0.171 0 0-0.043 0-0.085 0-0.043-0.085-0.128-0.128-0.171-0.171 0 0-0.043-0.043-0.085-0.085-0.171-0.085-0.299-0.213-0.469-0.299-0.043-0.043-0.043-0.043-0.043-0.043-0.085-0.043-0.171-0.128-0.213-0.213v0c-0.299-0.213-0.555-0.427-0.811-0.597v-0.043c-4.565-3.712-9.088-7.467-13.483-11.392-0.256-0.213-0.512-0.427-0.725-0.64h-0.043c-0.085-0.085-0.128-0.171-0.213-0.256h-0.043c-0.171-0.128-0.299-0.256-0.469-0.427h-0.043c-0.043-0.085-0.128-0.171-0.171-0.213 0-0.043-0.043-0.043-0.043-0.043-0.085-0.085-0.128-0.128-0.213-0.171v-0.043c-0.085 0-0.171-0.085-0.256-0.171 0 0-0.043 0-0.043-0.043l-0.171-0.171c-0.043-0.043-0.043-0.043-0.043-0.043-0.085-0.085-0.171-0.128-0.171-0.128-0.085-0.085-0.085-0.085-0.085-0.085-0.085-0.085-0.171-0.128-0.256-0.213 0 0 0 0-0.043-0.043l-0.171-0.171c-0.043-0.043-0.043-0.043-0.043-0.043-0.085-0.085-0.128-0.128-0.213-0.171 0-0.043-0.043-0.043-0.043-0.043l-0.171-0.213c0 0-0.043-0.043-0.085-0.085s-0.085-0.085-0.171-0.128c0 0-0.085-0.085-0.085-0.128 0 0-0.085-0.043-0.128-0.085s-0.085-0.043-0.128-0.043c0 0-0.043-0.085-0.085-0.128-0.085-0.043-0.128-0.128-0.171-0.128-0.043-0.085-0.085-0.085-0.171-0.171 0 0-0.043-0.085-0.085-0.085l-0.085-0.085c-0.085-0.043-0.128-0.085-0.171-0.128 0-0.043-0.043-0.043-0.043-0.043l-0.469-0.512h-0.043c-0.043-0.085-0.085-0.128-0.171-0.171 0 0 0 0-0.043-0.043s-0.085-0.043-0.085-0.043l29.099-31.232c9.045 8.405 18.773 16.427 28.8 23.68l-25.003 34.56c-3.029-2.133-6.016-4.395-9.003-6.699zM228.48 563.584l-40.491 13.44c-2.56-7.723-4.821-15.488-6.827-23.424-0.085-0.384-0.171-0.725-0.256-1.024h-0.043c0-0.085-0.043-0.171-0.043-0.256l-0.256-0.981c-0.043-0.085-0.043-0.171-0.085-0.256 0 0 0 0 0-0.043-0.085-0.341-0.171-0.64-0.256-0.939v-0.085c0-0.085-0.043-0.171-0.043-0.171v-0.085c-0.085-0.256-0.128-0.512-0.213-0.768 0-0.085-0.043-0.171-0.043-0.256-0.043-0.085-0.043-0.171-0.085-0.256v-0.043c-0.043-0.213-0.128-0.469-0.171-0.725 0 0 0 0 0-0.043-0.043-0.085-0.043-0.128-0.043-0.213 0-0.043 0-0.085-0.043-0.085 0-0.085-0.043-0.171-0.043-0.213v-0.043c-0.043-0.256-0.128-0.469-0.171-0.725 0-0.043 0-0.043 0-0.043-0.043-0.085-0.043-0.171-0.085-0.256-0.085-0.341-0.128-0.683-0.213-0.981v-0.043c-0.043-0.085-0.043-0.128-0.085-0.213v-0.085c-0.085-0.341-0.128-0.683-0.213-0.939v-0.043c0-0.043 0-0.128-0.043-0.213-0.043-0.256-0.085-0.512-0.171-0.768 0-0.085-0.043-0.171-0.043-0.256 0 0 0-0.043 0-0.085-0.043-0.043-0.043-0.128-0.043-0.213l-0.043-0.043c-0.043-0.341-0.128-0.683-0.213-0.981s-0.128-0.683-0.213-1.024c-0.043-0.085-0.043-0.171-0.043-0.256-0.299-1.365-0.597-2.773-0.896-4.139l41.856-8.277c2.475 12.16 5.675 24.32 9.557 36.053zM512 768c3.413 0 6.784-0.085 10.155-0.171l1.408 42.667c-2.859 0.085-5.717 0.128-8.661 0.171h-0.043c-0.085 0-0.213 0-0.213 0h-0.853c0 0 0 0-0.043 0h-0.299c-0.043 0-0.043 0-0.043 0h-0.725c0 0-0.043 0-0.085 0h-0.171c0 0-0.043 0-0.085 0h-0.683c0 0-0.043 0-0.085 0h-0.341c0 0-0.128 0-0.213 0 0 0-0.043 0-0.085 0h-0.213c0 0-0.043 0-0.085 0h-0.299c-0.043 0-0.043 0-0.043 0h-2.304c0 0-0.043 0-0.085 0h-0.299c-0.128 0-0.213 0-0.341-0.043h-0.341c0 0-0.043 0-0.085 0h-0.213c-0.043 0-0.085 0-0.085 0h-0.256c-0.043 0-0.043 0-0.043 0-0.256 0-0.469-0.043-0.683-0.043-0.043 0-0.043 0-0.043 0h-0.299c-0.043 0-0.043 0-0.043 0h-1.323c0 0 0 0-0.043 0h-0.299c-0.341 0-0.683-0.043-0.981-0.043-0.128 0-0.256 0-0.341-0.043h-1.707c-9.472-0.341-18.859-1.024-28.16-2.091-0.299-0.085-0.64-0.085-0.939-0.171h-0.341c-0.085 0-0.171-0.043-0.171-0.043-0.085 0-0.128 0-0.171-0.043h-0.213c-0.043 0-0.043 0-0.043 0-0.128 0-0.256-0.043-0.341-0.043-0.043 0-0.085-0.043-0.128-0.043h-0.341l-0.128-0.043h-0.128l5.291-42.325c12.331 1.536 24.875 2.304 37.333 2.304zM186.24 367.146v-0.085c0.043-0.171 0.128-0.384 0.171-0.597 0.043-0.128 0.085-0.213 0.085-0.341h0.043c4.224-13.312 9.216-26.283 14.976-38.827l38.784 17.749c-5.163 11.307-9.643 22.997-13.312 34.816l-40.747-12.715zM839.467 566.016c-3.371 11.52-7.381 22.827-11.947 33.792v0.043c-0.043 0.085-0.043 0.128-0.043 0.128l-0.043 0.128c-0.085 0.213-0.213 0.427-0.299 0.683v0c-0.043 0.043-0.085 0.128-0.085 0.213l-0.043 0.043c-0.043 0.043-0.043 0.128-0.085 0.213 0 0 0 0.043-0.043 0.085-0.043 0.085-0.085 0.171-0.128 0.299 0 0.043-0.043 0.085-0.043 0.128 0 0-0.043 0.085-0.043 0.128-0.043 0.043-0.043 0.128-0.043 0.128-0.043 0.085-0.085 0.085-0.085 0.171-0.043 0.043-0.043 0.085-0.085 0.171l-0.171 0.341c0 0.043 0 0.085 0 0.085-0.043 0.085-0.085 0.171-0.128 0.213 0 0 0 0.043 0 0.128-0.043 0.043-0.085 0.085-0.085 0.171-0.043 0-0.043 0.085-0.043 0.085l-0.128 0.256v-0.043c-0.043 0.085-0.085 0.213-0.128 0.299l-0.043 0.043c0 0.043-0.043 0.128-0.085 0.213 0 0.085 0 0.085 0 0.085-0.085 0.085-0.085 0.171-0.128 0.256l-0.427 0.939c-0.085 0.256-0.171 0.427-0.256 0.64l-39.125-17.109c4.992-11.349 9.301-23.083 12.8-34.987l40.96 12.032zM804.011 406.186c-2.645-12.117-6.059-24.192-10.112-35.883l40.235-14.123c0.896 2.517 1.749 5.077 2.603 7.68l1.109 3.499c3.029 9.771 5.675 19.712 7.893 29.824l-41.728 9.003zM712.917 745.301c0 0 0 0.043 0 0-0.213 0.171-0.384 0.299-0.597 0.469h-0.085c-0.043 0.043-0.085 0.043-0.128 0.085s-0.085 0.043-0.085 0.043c-0.043 0.085-0.128 0.085-0.128 0.085-0.085 0.085-0.171 0.171-0.171 0.171-0.043 0.085-0.085 0.085-0.128 0.085-0.043 0.085-0.085 0.085-0.171 0.128 0 0.043-0.043 0.043-0.085 0.085s-0.128 0.043-0.171 0.128c0 0-0.043 0-0.085 0.043-0.085 0.043-0.171 0.128-0.256 0.171s-0.171 0.128-0.256 0.213h-0.043c-0.085 0.085-0.128 0.128-0.213 0.171l-0.043 0.043c-7.979 5.675-16.128 11.051-24.576 16l-21.717-36.693c10.624-6.315 21.035-13.355 30.848-20.992l26.155 33.749c-2.603 2.005-5.205 3.968-7.893 5.931-0.043 0-0.085 0.043-0.171 0.085zM433.237 629.418c0 0-63.317-253.653-44.672-321.835 18.603-68.224 89.003-108.331 157.227-89.685 68.224 18.603 108.373 89.003 89.728 157.227-18.688 68.181-202.283 254.293-202.283 254.293zM534.485 259.029c-45.397-12.459-92.331 14.336-104.747 59.776s14.251 92.373 59.776 104.832c45.44 12.416 92.373-14.336 104.789-59.819 12.459-45.397-14.293-92.331-59.819-104.789z" />
<glyph unicode="&#xe648;" d="M810.581 896.085v-17.707c-42.624 12.629-75.477 19.669-114.688 19.669-76.501 0-152.747-23.851-224.512-46.891-68.48-21.931-134.272-42.752-197.333-42.752-47.744 0-86.741 12.459-126.635 38.059l-62.080 42.24v-656.043l15.488-12.587c54.016-34.731 109.653-51.669 174.251-51.669 76.459 0 149.632 23.851 221.355 46.933 68.48 22.016 136.832 42.752 199.979 42.752 40.021 0 71.595-9.344 114.261-27.264v-275.584h85.333v940.843h-85.419zM810.667 324.565c-42.667 12.672-75.563 18.816-114.731 18.816-76.501 0-152.747-23.851-224.512-46.848-68.523-22.016-130.176-42.837-193.237-42.837-40.021 0-64.853 8.747-107.52 26.667v461.568c42.667-12.629 67.328-18.816 106.496-18.816 76.416 0 148.565 23.851 220.331 46.891 68.48 22.016 136.32 42.795 199.424 42.795 39.979-0.043 71.083-8.789 113.749-26.667v-461.568z" />
<glyph unicode="&#xe649;" d="M896 654.89v283.776h-213.333v-126.421l-171.435 126.421-511.232-384h128v-554.667h768v554.667l128-0.085-128 100.309zM512 85.333h-170.667v341.333h170.667v-341.333zM810.667 85.333h-256v384h-256v-384h-85.333v512l299.051 213.333 298.283-213.333v-512zM810.667 762.368l-42.667 28.459v62.507h42.667v-90.965zM768 384h-170.667v-170.667h170.667v170.667zM725.333 256h-85.333v85.333h85.333v-85.333zM469.333 256h-42.667v-42.667h42.667v42.667z" />
<glyph unicode="&#xe64a;" d="M938.667 597.333h-85.333v341.333h-682.667v-341.333h-85.333c-46.933 0-85.333-38.4-85.333-85.333v-426.667c0-46.933 28.8-85.333 64-85.333h106.667v-42.667h682.667v42.667h106.667c35.2 0 64 38.4 64 85.333v426.667c0 46.933-38.4 85.333-85.333 85.333zM170.667 42.666h-42.667v213.333h42.667v-213.333zM768 42.666h-512v213.333h85.333v-42.667h341.333v42.667h85.333v-213.333zM768 597.333h-512v256h512v-256zM896 42.666h-42.667v213.333h42.667v-213.333zM938.667 469.333h-85.333v42.667h85.333v-42.667zM341.333 128h341.333v42.667h-341.333v-42.667z" />
<glyph unicode="&#xe64b;" d="M512 981.333c-282.752 0-512-229.248-512-512s229.248-512 512-512 512 229.248 512 512-229.248 512-512 512zM512 42.666c-235.264 0-426.667 191.403-426.667 426.667s191.403 426.667 426.667 426.667 426.667-191.403 426.667-426.667-191.403-426.667-426.667-426.667zM701.739 763.52c-21.077 10.496-46.72 1.963-57.259-19.072l-144.171-288.384-86.187 86.144c-16.683 16.683-43.648 16.683-60.331 0s-16.683-43.648 0-60.331l128-128c8.107-8.107 18.944-12.544 30.208-12.544 2.261 0 4.565 0.171 6.827 0.555 13.525 2.219 25.173 10.795 31.317 23.040l170.667 341.333c10.581 21.077 2.005 46.677-19.072 57.259zM469.419 170.752h85.333v-42.752h-85.333zM469.419 853.333h85.333v-42.752h-85.333zM128 512.085h85.333v-42.752h-85.333zM810.581 512.085h85.333v-42.752h-85.333z" />
<glyph unicode="&#xe64c;" d="M853.333 810.666v170.667h-256v-170.667h-170.667v170.667h-256v-170.667h-170.667v-810.667h1024v810.667h-170.667zM682.667 896h85.333v-170.667h-85.333v170.667zM256 896h85.333v-170.667h-85.333v170.667zM938.667 85.333h-853.333v469.333h853.333v-469.333zM938.667 597.333h-853.333v128h85.333v-85.333h256v85.333h170.667v-85.333h256v85.333h85.333v-128zM213.376 426.709h85.248v-85.333h-85.248zM341.376 426.709h85.248v-85.333h-85.248zM469.248 426.709h85.248v-85.333h-85.248zM597.248 426.709h85.248v-85.333h-85.248zM725.376 426.709h85.248v-85.333h-85.248zM213.376 298.752h85.248v-85.333h-85.248zM341.376 298.752h85.248v-85.333h-85.248zM469.248 298.752h85.248v-85.333h-85.248z" />
<glyph unicode="&#xe64d;" d="M853.333 938.666h-725.333c-70.571 0-128-57.429-128-128v-512c0-70.571 85.333-85.333 128-85.333v-256l384 256h341.333c70.571 0 128 57.429 128 128v469.333c0 70.571-57.429 128-128 128zM896 341.333c0-23.509-19.157-42.667-42.667-42.667h-384l-256-213.333v213.333h-85.333c-23.509 0-42.667 19.157-42.667 42.667v469.333c0 23.509 19.157 42.667 42.667 42.667h725.333c23.509 0 42.667-19.157 42.667-42.667v-469.333zM170.667 725.333h512v-85.333h-512zM170.667 597.333h640v-42.667h-640zM170.667 512h640v-42.667h-640zM170.667 426.666h341.333v-42.667h-341.333z" />
<glyph unicode="&#xe64e;" d="M277.333 597.333c35.328 0 64-28.629 64-64s-28.672-64-64-64-64 28.629-64 64 28.672 64 64 64zM490.667 597.333c35.328 0 64-28.629 64-64s-28.672-64-64-64-64 28.629-64 64 28.672 64 64 64zM704 597.333c35.328 0 64-28.629 64-64s-28.672-64-64-64-64 28.629-64 64 28.672 64 64 64zM853.333 938.666h-725.333c-70.571 0-128-57.429-128-128v-512c0-70.571 85.333-85.333 128-85.333v-256l384 256h341.333c70.571 0 128 57.429 128 128v469.333c0 70.571-57.429 128-128 128zM896 341.333c0-23.509-19.157-42.667-42.667-42.667h-384l-256-213.333v213.333h-85.333c-23.509 0-42.667 19.157-42.667 42.667v469.333c0 23.509 19.157 42.667 42.667 42.667h725.333c23.509 0 42.667-19.157 42.667-42.667v-469.333z" />
<glyph unicode="&#xe64f;" d="M277.333 597.333c35.328 0 64-28.629 64-64s-28.672-64-64-64-64 28.629-64 64 28.672 64 64 64zM490.667 597.333c35.328 0 64-28.629 64-64s-28.672-64-64-64-64 28.629-64 64 28.672 64 64 64zM853.333 938.666h-725.333c-70.571 0-128-57.429-128-128v-512c0-70.571 85.333-85.333 128-85.333v-256l384 256h341.333c70.571 0 128 57.429 128 128v469.333c0 70.571-57.429 128-128 128zM896 341.333c0-23.509-19.157-42.667-42.667-42.667h-384l-256-213.333v213.333h-85.333c-23.509 0-42.667 19.157-42.667 42.667v469.333c0 23.509 19.157 42.667 42.667 42.667h725.333c23.509 0 42.667-19.157 42.667-42.667v-469.333z" />
<glyph unicode="&#xe650;" d="M277.333 597.333c35.328 0 64-28.629 64-64s-28.672-64-64-64-64 28.629-64 64 28.672 64 64 64zM853.333 938.666h-725.333c-70.571 0-128-57.429-128-128v-512c0-70.571 85.333-85.333 128-85.333v-256l384 256h341.333c70.571 0 128 57.429 128 128v469.333c0 70.571-57.429 128-128 128zM896 341.333c0-23.509-19.157-42.667-42.667-42.667h-384l-256-213.333v213.333h-85.333c-23.509 0-42.667 19.157-42.667 42.667v469.333c0 23.509 19.157 42.667 42.667 42.667h725.333c23.509 0 42.667-19.157 42.667-42.667v-469.333z" />
<glyph unicode="&#xe651;" d="M853.333 938.666h-725.333c-70.571 0-128-57.429-128-128v-512c0-70.571 85.333-85.333 128-85.333v-256l384 256h341.333c70.571 0 128 57.429 128 128v469.333c0 70.571-57.429 128-128 128zM896 341.333c0-23.509-19.157-42.667-42.667-42.667h-384l-256-213.333v213.333h-85.333c-23.509 0-42.667 19.157-42.667 42.667v469.333c0 23.509 19.157 42.667 42.667 42.667h725.333c23.509 0 42.667-19.157 42.667-42.667v-469.333z" />
<glyph unicode="&#xe652;" d="M33.835 78.165l60.331-60.331 187.093 187.093-58.752 61.909-188.672-188.672zM602.667 938.666c-209.109 0-378.667-169.557-378.667-378.667 0-81.877 26.325-157.44 70.485-219.435l71.253-75.093c64.896-52.352 147.029-84.181 236.928-84.181 209.109 0 378.667 169.557 378.667 378.667s-169.557 378.709-378.667 378.709zM602.667 266.666c-161.749 0-293.333 131.584-293.333 293.333s131.584 293.333 293.333 293.333 293.333-131.584 293.333-293.333-131.584-293.333-293.333-293.333zM469.248 597.248h256v-85.333h-256z" />
<glyph unicode="&#xe653;" d="M33.835 78.165l60.331-60.331 187.093 187.093-58.752 61.909-188.672-188.672zM602.667 938.666c-209.109 0-378.667-169.557-378.667-378.667 0-81.877 26.325-157.44 70.485-219.435l71.253-75.093c64.896-52.352 147.029-84.181 236.928-84.181 209.109 0 378.667 169.557 378.667 378.667s-169.557 378.709-378.667 378.709zM602.667 266.666c-161.749 0-293.333 131.584-293.333 293.333s131.584 293.333 293.333 293.333 293.333-131.584 293.333-293.333-131.584-293.333-293.333-293.333zM640.939 682.666h-85.333v-85.333h-85.333v-85.333h85.333v-85.333h85.333v85.333h85.333v85.333h-85.333v85.333z" />
<glyph unicode="&#xe654;" d="M33.835 78.165l60.331-60.331 187.093 187.093-58.752 61.909-188.672-188.672zM602.667 938.666c-209.067 0-378.667-169.557-378.667-378.667 0-81.877 26.325-157.44 70.485-219.435l71.253-75.093c64.896-52.352 147.072-84.181 236.928-84.181 209.152 0 378.667 169.557 378.667 378.667s-169.515 378.709-378.667 378.709zM602.667 266.666c-161.749 0-293.333 131.584-293.333 293.333s131.584 293.333 293.333 293.333 293.333-131.584 293.333-293.333-131.584-293.333-293.333-293.333z" />
<glyph unicode="&#xe655;" d="M640 810.666v128h-256v-128h-170.667v-85.333h597.333v85.333h-170.667zM555.435 810.666h-85.333v42.667h85.333v-42.667zM213.333 682.666v-640l85.333-85.333h426.667l85.333 85.333v640h-597.333zM341.333 42.666h-42.667v469.333h42.667v-469.333zM426.667 42.666h-42.667v469.333h42.667v-469.333zM512 42.666h-42.667v469.333h42.667v-469.333zM725.333 42.666h-170.667v469.333h170.667v-469.333zM725.333 554.666h-426.667v42.667h426.667v-42.667z" />
<glyph unicode="&#xe656;" d="M938.069 604.97l-120.96 376.021-390.656-120.747-341.163-630.485 503.381-272.085 340.309 628.949c0.256 0.427 0.512 0.896 0.725 1.28l9.045 16.725-0.683 0.341zM756.48 625.706c-30.805-57.088-102.101-78.336-159.232-47.488-57.131 30.933-78.336 102.187-47.445 159.189 30.848 57.131 102.229 78.336 159.275 47.488 57.088-30.848 78.336-102.144 47.403-159.189z" />
<glyph unicode="&#xe657;" d="M640 512v469.333h-213.333v-469.333h-168.661l271.488-271.531 271.488 271.531zM860.16 682.666h-134.827v-85.333h134.827c23.509 0 35.84-0.683 35.84-24.149v-320c0-35.328-21.931-82.517-57.173-82.517h-653.568c-35.243 0-57.173 47.189-57.173 82.517v320c0 23.467 12.331 24.149 35.84 24.149h134.827v85.333h-134.827c-70.571 0-121.173-38.912-121.173-109.483v-469.333c0-70.571 50.603-146.517 121.173-146.517h696.235c70.571 0 121.173 75.904 121.173 146.517v469.333c0 70.571-50.603 109.483-121.173 109.483zM896 103.85c0-23.509-12.331-61.184-35.84-61.184h-696.235c-23.509 0-35.84 37.675-35.84 61.184v64.555c0-13.525 33.067-40.363 57.173-40.363h653.568c24.064 0 57.173 26.837 57.173 40.363v-64.555z" />
<glyph unicode="&#xe658;" d="M903.211 780.501l-120.661 120.661c-83.2 83.157-218.539 83.157-301.696 0l-422.4-422.357 60.331-60.331 422.4 422.357c49.92 49.92 131.115 49.92 180.992 0l120.704-120.704c49.92-49.877 49.92-131.072 0-180.992l-422.357-422.357c-54.4-54.4-114.901-66.091-131.115-49.92l-19.755 19.712-96.171 96.171c-7.509 7.509-1.365 47.744 20.736 69.845l422.272 422.272c4.949 4.907 45.312-15.104 75.435-45.269v0c-13.184-13.184-10.112-10.155-15.061-15.104l-306.432-306.389 60.331-60.331 306.432 306.389c36.48 36.437 81.835 69.035 15.104 135.765v0c-66.688 66.731-133.845 107.52-196.096 45.269l-422.4-422.272c-49.835-49.92-69.248-141.909-20.651-190.507l65.92-66.005 50.005-49.92c56.576-56.576 167.168-34.645 251.733 49.92l422.357 422.357c83.2 83.2 83.2 218.539 0.043 301.739z" />
<glyph unicode="&#xe659;" d="M85.333 810.666v-768h810.667v768h-810.667zM810.667 128h-640v597.333h640v-597.333zM725.248 469.333h-469.248v-128h469.248v128z" />
<glyph unicode="&#xe65a;" d="M170.667 725.333l411.819-0.597 50.261 85.333-547.413 0.597v-426.667l85.333 85.333v256zM170.667 128c-1.664 2.901 0.981 102.528 0.981 128.256-45.184 66.816-86.315 127.744-86.315 127.744v-341.333l244.821-0.597c0 0-24.917 36.907-57.259 84.736-33.365 0.043-85.248 1.195-102.229 1.195zM810.667 128l-253.483-0.597-50.261-85.333 389.077 0.597v597.333l-85.333-85.333v-426.667zM768.597 917.333l-352-598.4-97.664 170.837-148.181-84.651 243.669-426.453 501.248 852.181-147.072 86.485z" />
<glyph unicode="&#xe65b;" d="M383.147 0l-243.627 426.411 148.181 84.651 97.664-170.837 352.043 598.443 147.072-86.485-501.333-852.181z" />
<glyph unicode="&#xe65c;" d="M234.027 499.84c19.072 114.048 136.96 238.421 276.437 238.421 80.683 0 152.747-37.035 203.179-94.123l67.84 45.227c-66.261 78.72-164.565 129.749-274.005 129.749-181.333 0-331.264-125.995-354.005-303.659l-153.472 29.653 151.083-223.445 223.488 150.997-140.544 27.179zM872.917 617.002l-223.488-150.997 140.501-27.179c-19.029-114.048-136.96-238.464-276.437-238.421-80.725 0-152.747 37.035-203.221 94.123l-67.797-45.227c66.261-78.72 164.565-129.749 274.005-129.749 181.291 0 331.264 125.995 353.963 303.659l153.557-29.653-151.083 223.445z" />
<glyph unicode="&#xe65d;" d="M589.568 849.92c-191.403 0-349.653-133.035-373.675-320.555l-162.048 31.36 159.488-235.904 235.904 159.36-148.352 28.715c20.096 120.363 144.597 251.648 291.84 251.648 160.853 0 292.096-137.856 292.096-298.752 0-160.896-160.427-291.755-288.427-291.755v-85.333c213.333 0 373.76 172.672 373.76 380.587s-172.672 380.629-380.587 380.629z" />
<glyph unicode="&#xe65e;" d="M213.333 384h384v-192l277.077 277.333-277.077 277.333v-192h-386.005c-46.080 0-83.328-38.144-83.328-85.333s39.253-85.333 85.333-85.333z" />
<glyph unicode="&#xe65f;" d="M426.624 725.333v-384h-192l277.333-277.077 277.333 277.077h-192v386.005c0 46.080-38.144 83.328-85.333 83.328-47.232 0-85.333-39.253-85.333-85.333z" />
<glyph unicode="&#xe660;" d="M597.333 170.666v384h192l-277.333 277.077-277.333-277.077h192v-386.005c0-46.080 38.144-83.328 85.333-83.328s85.333 39.253 85.333 85.333z" />
<glyph unicode="&#xe661;" d="M767.872 554.666h-384v192l-277.077-277.333 277.077-277.333v192h386.005c46.080 0 83.328 38.144 83.328 85.333s-39.253 85.333-85.333 85.333z" />
<glyph unicode="&#xe662;" d="M426.581 618.752c86.997 0 157.952-65.323 168.533-149.419h150.016c-1.408 20.139-4.139 39.893-9.045 58.837l121.216 69.973-85.376 147.883-121.045-69.888c-38.187 37.589-85.76 65.365-138.88 80.085v139.861h-170.752v-139.861c-53.12-14.677-100.736-42.496-138.923-80.043l-121.003 69.845-85.376-147.883 121.131-69.931c-6.613-25.685-10.539-52.395-10.539-80.128s3.883-54.485 10.539-80.128l-121.131-69.973 85.376-147.84 120.96 69.845c38.187-37.589 85.845-65.365 138.965-80.043v-139.861h170.752v301.014c-25.216-14.677-54.144-23.723-85.419-23.723-94.251 0-170.667 76.416-170.667 170.667s76.416 170.709 170.667 170.709zM981.248 213.333c0 15.787-2.816 30.805-6.869 45.312l79.232 45.739-42.624 73.813-78.677-45.397c-21.376 21.76-48.64 37.333-79.061 45.269v91.264h-85.248v-91.264c-30.507-7.851-57.771-23.424-79.189-45.227l-78.549 45.355-42.624-73.813 79.061-45.611c-4.053-14.592-6.912-29.611-6.912-45.44s2.859-30.891 6.912-45.44l-79.061-45.611 42.624-73.813 78.549 45.355c21.419-21.803 48.725-37.376 79.189-45.227v-91.264h85.248v91.307c30.421 7.936 57.685 23.509 79.061 45.269l78.72-45.44 42.624 73.813-79.232 45.739c4.011 14.507 6.827 29.525 6.827 45.312zM810.496 128.085c-47.104 0-85.248 38.187-85.248 85.248s38.187 85.248 85.248 85.248 85.248-38.187 85.248-85.248-38.144-85.248-85.248-85.248z" />
<glyph unicode="&#xe663;" d="M888.32 640c-17.579 49.664-64.981 85.333-120.576 85.333h-639.445c-70.528 0-127.872-57.429-127.872-128v-298.667c0-70.571 57.344-128 127.872-128h639.445c55.595 0 102.997 35.669 120.576 85.333h92.587v384h-92.587zM810.411 298.666c0-23.509-19.157-42.667-42.667-42.667h-639.445c-23.552 0-42.624 19.157-42.624 42.667v298.667c0 23.509 19.072 42.667 42.624 42.667h639.445c23.509 0 42.667-19.157 42.667-42.667v-298.667zM895.659 341.333h-42.667v213.333h42.667v-213.333zM298.795 597.333h127.915v-298.667h-127.915zM469.333 597.333h127.915v-298.667h-127.915zM703.829 597.333h-64v-298.667h64c35.157 0 63.915 38.4 63.915 85.333v128c0 46.933-28.757 85.333-63.915 85.333zM128.299 512v-128c0-46.933 28.757-85.333 63.957-85.333h63.915v298.667h-63.915c-35.2 0-63.957-38.4-63.957-85.333z" />
<glyph unicode="&#xe664;" d="M888.32 640c-17.579 49.664-64.981 85.333-120.576 85.333h-639.445c-70.528 0-127.872-57.429-127.872-128v-298.667c0-70.571 57.344-128 127.872-128h639.445c55.595 0 102.997 35.669 120.576 85.333h92.587v384h-92.587zM810.411 298.666c0-23.509-19.157-42.667-42.667-42.667h-639.445c-23.552 0-42.624 19.157-42.624 42.667v298.667c0 23.509 19.072 42.667 42.624 42.667h639.445c23.509 0 42.667-19.157 42.667-42.667v-298.667zM895.659 341.333h-42.667v213.333h42.667v-213.333zM298.795 597.333h127.915v-298.667h-127.915zM469.333 597.333h127.915v-298.667h-127.915zM128.299 512v-128c0-46.933 28.757-85.333 63.957-85.333h63.915v298.667h-63.915c-35.2 0-63.957-38.4-63.957-85.333z" />
<glyph unicode="&#xe665;" d="M888.32 640c-17.579 49.664-64.981 85.333-120.576 85.333h-639.445c-70.528 0-127.872-57.429-127.872-128v-298.667c0-70.571 57.344-128 127.872-128h639.445c55.595 0 102.997 35.669 120.576 85.333h92.587v384h-92.587zM810.411 298.666c0-23.509-19.157-42.667-42.667-42.667h-639.445c-23.552 0-42.624 19.157-42.624 42.667v298.667c0 23.509 19.072 42.667 42.624 42.667h639.445c23.509 0 42.667-19.157 42.667-42.667v-298.667zM895.659 341.333h-42.667v213.333h42.667v-213.333zM298.795 597.333h127.915v-298.667h-127.915zM128.299 512v-128c0-46.933 28.757-85.333 63.957-85.333h63.915v298.667h-63.915c-35.2 0-63.957-38.4-63.957-85.333z" />
<glyph unicode="&#xe666;" d="M888.32 640c-17.579 49.664-64.981 85.333-120.576 85.333h-639.445c-70.528 0-127.872-57.429-127.872-128v-298.667c0-70.571 57.344-128 127.872-128h639.445c55.595 0 102.997 35.669 120.576 85.333h92.587v384h-92.587zM810.411 298.666c0-23.509-19.157-42.667-42.667-42.667h-639.445c-23.552 0-42.624 19.157-42.624 42.667v298.667c0 23.509 19.072 42.667 42.624 42.667h639.445c23.509 0 42.667-19.157 42.667-42.667v-298.667zM895.659 341.333h-42.667v213.333h42.667v-213.333zM128.299 512v-128c0-46.933 28.757-85.333 63.957-85.333h63.915v298.667h-63.915c-35.2 0-63.957-38.4-63.957-85.333z" />
<glyph unicode="&#xe667;" d="M888.32 640c-17.579 49.664-64.981 85.333-120.576 85.333h-639.445c-70.528 0-127.872-57.429-127.872-128v-298.667c0-70.571 57.344-128 127.872-128h639.445c55.595 0 102.997 35.669 120.576 85.333h92.587v384h-92.587zM810.411 298.666c0-23.509-19.157-42.667-42.667-42.667h-639.445c-23.552 0-42.624 19.157-42.624 42.667v298.667c0 23.509 19.072 42.667 42.624 42.667h639.445c23.509 0 42.667-19.157 42.667-42.667v-298.667zM895.659 341.333h-42.667v213.333h42.667v-213.333z" />
<glyph unicode="&#xe668;" d="M887.979 640c-17.579 49.664-64.981 85.333-120.576 85.333h-639.488c-70.528 0-127.915-57.429-127.915-128v-298.667c0-70.571 57.387-128 127.915-128h639.445c55.595 0 102.997 35.669 120.576 85.333h92.544v384h-92.501zM809.941 298.666c0-23.509-19.072-42.667-42.581-42.667h-639.445c-23.552 0-42.667 19.157-42.667 42.667v298.667c0 23.509 19.115 42.667 42.667 42.667h639.445c23.509 0 42.581-19.157 42.581-42.667v-298.667zM895.232 341.333h-42.624v213.333h42.624v-213.333zM430.805 341.333l42.581 85.333h213.163l-255.744 128-42.667-85.333h-213.163l255.829-128z" />
<glyph unicode="&#xe669;" d="M895.659 713.429v97.237h-767.317v-97.237l-127.872-42.667v-402.816l127.872-42.667v-97.28h767.317v97.237l127.872 42.667v402.859l-127.872 42.667zM128.341 315.221l-42.624 14.208v279.808l42.624 14.208v-308.224zM810.411 213.333h-596.821v512h596.821v-512zM938.283 329.429l-42.624-14.208v308.224l42.624-14.208v-279.808zM767.787 682.666h-511.573v-426.667h511.573v426.667zM725.163 298.666h-426.325v341.333h426.325v-341.333z" />
<glyph unicode="&#xe66a;" d="M42.667 896v-896h895.147v896h-895.147zM852.565 597.333h-213.163v213.333h213.163v-213.333zM852.565 341.333h-213.163v213.333h213.163v-213.333zM852.565 85.333h-213.163v213.333h213.163v-213.333zM127.915 298.666h213.163v-213.333h-213.163v213.333zM127.915 554.666h213.163v-213.333h-213.163v213.333zM127.915 810.666h213.163v-213.333h-213.163v213.333zM596.821 597.333h-213.12v213.333h213.163v-213.333zM596.821 341.333h-213.12v213.333h213.163v-213.333zM383.701 298.666h213.163v-213.333h-213.163v213.333z" />
<glyph unicode="&#xe66b;" d="M384.171 853.333v-810.667h511.531v341.333h127.829v469.333h-639.36zM810.411 128h-340.992v128h340.992v-128zM810.411 298.666h-340.992v128h340.992v-128zM938.283 469.333h-468.864v128h468.864v-128zM938.283 640h-468.864v128h468.864v-128zM0.469 42.666h298.453v810.667h-298.453v-810.667zM85.717 768h127.915v-128h-127.915v128zM85.717 597.333h127.915v-128h-127.915v128zM85.717 426.666h127.915v-128h-127.915v128zM85.717 256h127.915v-128h-127.915v128z" />
<glyph unicode="&#xe66c;" d="M512 600.746c-83.584 0-159.232-33.877-214.016-88.661l60.416-60.416c39.339 39.381 93.653 63.744 153.6 63.744s114.261-24.363 153.6-63.744l60.416 60.416c-54.784 54.784-130.432 88.661-214.016 88.661zM512 423.296c-35.328 0-64-28.715-64-64.043s28.672-64 64-64 64 28.672 64 64-28.672 64.043-64 64.043z" />
<glyph unicode="&#xe66d;" d="M597.333 810.666v42.667c0 47.104-38.229 85.333-85.333 85.333h-170.667c-47.104 0-85.333-38.229-85.333-85.333v-42.667h-170.667v-128h-42.667v-298.667h85.333v213.333h768v-512h-469.333v-85.333h554.667v810.667h-384zM896 682.666h-725.333v42.667h170.667v128h170.667v-128h384v-42.667zM170.752 149.333l-31.701 80-63.275-78.848 104.107-139.563 171.52 278.827-62.848 36.907z" />
<glyph unicode="&#xe66e;" d="M597.333 810.666v42.667c0 47.104-38.229 85.333-85.333 85.333h-170.667c-47.104 0-85.333-38.229-85.333-85.333v-42.667h-170.667v-128h-42.667v-298.667h85.333v213.333h768v-512h-469.333v-85.333h554.667v810.667h-384zM896 682.666h-725.333v42.667h170.667v128h170.667v-128h384v-42.667zM317.781 148.437c1.707 7.168 2.176 14.592 2.176 22.229 0 7.68-1.024 15.061-2.688 22.229l65.835 39.381-37.888 57.856-62.080-39.552c-9.088 6.912-26.411 12.416-26.411 16.213v74.539h-86.784v-74.539c0-3.797-17.323-9.301-26.411-16.213l-62.080 39.552-37.888-57.856 65.835-39.381c-1.621-7.168-2.688-14.549-2.688-22.229 0-7.637 0.469-15.061 2.176-22.229l-66.304-39.381 36.821-57.899 64.085 39.595c9.131-6.912 26.453-12.416 26.453-16.256v-74.496h86.741v74.496c0 3.84 17.323 9.344 26.453 16.256l64.085-39.595 36.821 57.899-66.261 39.381zM213.333 102.442c-39.168 0.256-70.912 30.677-70.912 68.224s31.744 67.968 70.912 68.224c39.168-0.256 70.912-30.677 70.912-68.224s-31.744-67.968-70.912-68.224z" />
<glyph unicode="&#xe66f;" d="M597.333 853.333v42.667c0 47.104-38.229 85.333-85.333 85.333h-170.667c-47.104 0-85.333-38.229-85.333-85.333v-42.667h-170.667v-128h-42.667v-298.667h85.333v213.333h768v-512h-469.333v-85.333h554.667v810.667h-384zM896 725.333h-725.333v42.667h170.667v128h170.667v-128h384v-42.667zM256 384h-128v-128h-128v-128h128v-128h128v128h128v128h-128z" />
<glyph unicode="&#xe670;" d="M597.333 810.666v42.667c0 47.104-38.229 85.333-85.333 85.333h-170.667c-47.104 0-85.333-38.229-85.333-85.333v-42.667h-170.667v-128h-42.667v-682.667h938.667v810.667h-384zM896 85.333h-768v512h768v-512zM896 682.666h-725.333v42.667h170.667v128h170.667v-128h384v-42.667z" />
<glyph unicode="&#xe671;" d="M0 938.666v-938.667h1024v938.667h-1024zM938.667 85.333h-853.333v554.667h853.333v-554.667zM938.667 682.666h-853.333v170.667h853.333v-170.667zM469.333 810.666h-85.333v-85.333h85.333v85.333zM341.333 810.666h-85.333v-85.333h85.333v85.333zM213.333 810.666h-85.333v-85.333h85.333v85.333zM385.067 218.069l105.6 105.6 105.6-105.6 60.331 60.331-105.6 105.6 105.6 105.6-60.331 60.331-105.6-105.6-105.6 105.6-60.331-60.331 105.6-105.6-105.6-105.6 60.331-60.331z" />
<glyph unicode="&#xe672;" d="M128 938.666v-128h-128v-810.667h896v128h128v810.667h-896zM810.667 85.333h-725.333v640h42.667v-597.333h682.667v-42.667zM938.667 213.333h-725.333v426.667h725.333v-426.667zM938.667 682.666h-725.333v170.667h725.333v-170.667zM597.333 810.666h-85.333v-85.333h85.333v85.333zM469.333 810.666h-85.333v-85.333h85.333v85.333zM341.333 810.666h-85.333v-85.333h85.333v85.333z" />
<glyph unicode="&#xe673;" d="M0 938.666v-938.667h1024v938.667h-1024zM938.667 85.333h-853.333v554.667h853.333v-554.667zM938.667 682.666h-853.333v170.667h853.333v-170.667zM469.333 810.666h-85.333v-85.333h85.333v85.333zM341.333 810.666h-85.333v-85.333h85.333v85.333zM213.333 810.666h-85.333v-85.333h85.333v85.333z" />
<glyph unicode="&#xe674;" d="M128 896v-896h725.333v896h-725.333zM768 85.333h-554.667v725.333h554.667v-725.333zM385.067 303.402l105.6 105.6 105.6-105.6 60.331 60.331-105.6 105.6 105.6 105.6-60.331 60.331-105.6-105.6-105.6 105.6-60.331-60.331 105.6-105.6-105.6-105.6 60.331-60.331z" />
<glyph unicode="&#xe675;" d="M128 896v-896h725.333v896h-725.333zM768 85.333h-554.667v725.333h554.667v-725.333zM682.667 682.666h-384v-85.333h384v85.333zM682.667 554.666h-384v-42.667h384v42.667zM682.667 469.333h-384v-42.667h384v42.667zM682.667 384h-384v-42.667h384v42.667zM682.667 298.666h-384v-42.667h384v42.667z" />
<glyph unicode="&#xe676;" d="M128 896v-896h725.333v896h-725.333zM768 85.333h-554.667v725.333h554.667v-725.333zM597.333 682.666h-256v-85.333h256v85.333zM682.667 554.666h-384v-42.667h384v42.667zM682.667 469.333h-384v-42.667h384v42.667zM682.667 384h-384v-42.667h384v42.667zM426.667 256h128v42.667h-128v-42.667z" />
<glyph unicode="&#xe677;" d="M128 896v-896h725.333v896h-725.333zM768 85.333h-554.667v725.333h554.667v-725.333zM682.667 682.666h-256v-85.333h256v85.333zM682.667 554.666h-384v-42.667h384v42.667zM682.667 469.333h-384v-42.667h384v42.667zM682.667 384h-384v-42.667h384v42.667zM554.667 256h128v42.667h-128v-42.667z" />
<glyph unicode="&#xe678;" d="M128 896v-896h725.333v896h-725.333zM768 85.333h-554.667v725.333h554.667v-725.333zM554.667 682.666h-256v-85.333h256v85.333zM682.667 554.666h-384v-42.667h384v42.667zM682.667 469.333h-384v-42.667h384v42.667zM682.667 384h-384v-42.667h384v42.667zM426.667 298.666h-128v-42.667h128v42.667z" />
<glyph unicode="&#xe679;" d="M298.667 682.666h256v-85.333h-256zM298.667 554.666h384v-42.667h-384zM298.667 469.333h384v-42.667h-384zM298.667 384h384v-42.667h-384zM298.667 298.666h128v-42.667h-128zM701.013 896h-573.013v-896h725.333v745.173l-152.32 150.827zM768 709.845v-27.179h-128v128h25.685l102.315-100.821zM213.333 85.333v725.333h384v-170.667h170.667v-554.667h-554.667z" />
<glyph unicode="&#xe67a;" d="M341.333 682.666v-85.333h256v85.333h-256zM341.333 512h384v42.667h-384v-42.667zM725.333 469.333h-341.333v-42.667h341.333v42.667zM725.333 341.333v42.667h-298.667v-42.667h298.667zM341.333 384h-128v-128h-128v-128h128v-128h128v128h128v128h-128v128zM170.667 896v-426.667h85.333v341.333h554.667v-725.333h-283.435l-42.667-85.333h411.435v896h-725.333z" />
<glyph unicode="&#xe67b;" d="M298.667 682.666v-85.333h256v85.333h-256zM298.667 512h384v42.667h-384v-42.667zM682.667 469.333h-128v-42.667h128v42.667zM554.667 341.333h128v42.667h-128v-42.667zM128 896v-426.667h85.333v341.333h554.667v-725.333h-213.333v-85.333h298.667v896h-725.333zM414.165 234.666c0 10.24-1.536 20.053-3.755 29.568l59.221 39.723-38.016 65.109-59.904-40.021c-11.051 9.728-23.765 17.152-37.717 21.973v75.648h-71.637v-75.989c-13.611-4.821-25.941-12.203-36.779-21.76l-59.733 40.149-37.973-65.109 59.221-39.68c-2.219-9.515-3.755-19.371-3.755-29.611 0-10.283 1.536-20.139 3.755-29.653l-59.093-39.637 38.016-65.109 59.563 40.149c10.795-9.557 23.168-16.896 36.779-21.76v-75.989h71.637v75.605c13.952 4.779 26.667 12.203 37.717 21.931l59.733-39.979 38.101 65.109-59.136 39.68c2.176 9.557 3.755 19.371 3.755 29.653zM298.752 157.824c-39.509 0-71.637 34.432-71.637 76.843s32.128 76.8 71.637 76.8c39.595 0 71.637-34.389 71.637-76.8s-32.043-76.843-71.637-76.843z" />
<glyph unicode="&#xe67c;" d="M597.333 416.341v-288.341l-144.171 144.171-58.837-58.837h22.4l170.667-213.333c42.667 0 95.232 0 95.232 0v501.675l-85.291-85.333zM214.059 334.72c-0.171 2.219-0.725 4.267-0.725 6.613v245.333c0 23.509 9.173 53.333 32.768 53.333h137.899v-135.339l42.667 42.667v92.672l170.667 170.667v-92.672l85.333 85.333v135.339c-42.667 0-52.565 0-95.232 0l-170.667-213.333h-170.667c-70.613 0-118.101-68.096-118.101-138.667v-245.333c0-27.136 7.125-52.181 19.755-72.917l66.304 66.304zM145.664 55.168l-60.331 60.331 789.333 789.333 60.331-60.331-789.333-789.333z" />
<glyph unicode="&#xe67d;" d="M512 142.762l-1.493-1.835-339.84 435.072c-15.488 19.541-42.667 43.136-42.667 96.768 0 94.123 76.587 170.667 170.667 170.667 94.123 0 213.333-76.544 213.333-170.667v141.355c-45.867 69.035-124.373 114.645-213.333 114.645-141.184 0-256-114.816-256-256 0-87.723 42.667-128 53.675-156.544l415.659-504.405v130.944zM512 142.762l1.493-1.835 339.84 435.072c15.488 19.541 42.667 43.136 42.667 96.768 0 94.123-76.587 170.667-170.667 170.667s-213.333-76.544-213.333-170.667v141.355c45.909 69.035 124.416 114.645 213.333 114.645 141.184 0 256-114.816 256-256 0-87.723-42.667-128-53.675-156.544l-415.659-504.405v130.944z" />
<glyph unicode="&#xe67e;" d="M520.491 487.85l-179.157 179.157v-112.341h-298.667v-128h298.667v-118.016l179.157 179.2zM384 938.666v-143.659l85.333-85.333v143.659h345.131l-259.797-85.333v-512h-85.333v9.984l-85.333-85.333v-9.984h170.667v-170.667l384 128v810.667z" />
<glyph unicode="&#xe67f;" d="M502.101 938.666l-170.667-213.333h-170.667c-70.613 0-118.101-68.096-118.101-138.667v-245.333c0-70.571 47.488-128 118.101-128h170.667l170.667-213.333c42.667 0 95.232 0 95.232 0v938.667c-42.667 0-52.565 0-95.232 0zM298.667 298.666h-137.899c-23.595 0-32.768 19.157-32.768 42.667v245.333c0 23.509 9.173 53.333 32.768 53.333h137.899v-341.333zM512 128l-170.667 170.667v341.333l170.667 170.667v-682.667zM725.333 512h256v-85.333h-256z" />
<glyph unicode="&#xe680;" d="M297.984 430.165l60.416-60.416c39.339 39.339 93.653 63.744 153.6 63.744s114.261-24.405 153.6-63.744l60.416 60.416c-54.784 54.784-130.432 88.661-214.016 88.661s-159.232-33.877-214.016-88.661zM512 713.514c-137.344 0-261.675-55.68-351.659-145.664l60.501-60.501c74.581 74.624 177.579 120.832 291.157 120.832s216.576-46.208 291.157-120.832l60.501 60.501c-89.984 89.984-214.315 145.664-351.659 145.664zM512 341.333c-35.328 0-64-28.672-64-64s28.672-64 64-64 64 28.672 64 64-28.672 64-64 64z" />
<glyph unicode="&#xe681;" d="M544.768 938.666l-170.667-213.333h-170.667c-70.613 0-118.101-68.096-118.101-138.667v-245.333c0-70.571 47.488-128 118.101-128h170.667l170.667-213.333c42.667 0 95.232 0 95.232 0v938.667c-42.667 0-52.565 0-95.232 0zM341.333 298.666h-137.899c-23.595 0-32.768 19.157-32.768 42.667v245.333c0 23.509 9.173 53.333 32.768 53.333h137.899v-341.333zM554.667 128l-170.667 170.667v341.333l170.667 170.667v-682.667zM725.333 682.666v-88.875c85.333-17.707 85.333-64.64 85.333-120.107 0-55.595 0-102.485-85.333-120.149v-88.875c128 19.84 170.667 105.984 170.667 209.024 0 102.997-42.667 189.141-170.667 208.981z" />
<glyph unicode="&#xe682;" d="M128 981.333v-989.013l349.099 203.264 376.235-219.093v1004.843h-725.333zM213.333 140.757v755.243h256v-613.333l-27.179-13.312-228.821-128.597zM768 124.928l-237.312 144.427-18.688 12.416v614.229h256v-771.072z" />
<glyph unicode="&#xe683;" d="M0 896v-597.333h416l-74.667-128h341.333l-74.667 128h416v597.333h-1024zM938.667 384h-853.333v426.667h853.333v-426.667zM725.333 128h-426.667c-23.467 0-42.667-19.2-42.667-42.667s19.2-42.667 42.667-42.667h426.667c23.467 0 42.667 19.2 42.667 42.667s-19.2 42.667-42.667 42.667z" />
<glyph unicode="&#xe684;" d="M657.835 956.544l-307.243-170.24-350.592 195.029v-780.928l359.851-195.072 290.091 171.008 331.392-182.528v779.563l-323.499 183.168zM896 459.349l-213.333 109.312v267.861l213.333-114.261v-262.912zM384 712.362l213.333 121.899v-267.605l-213.333-121.899v267.605zM384 395.562l213.333 121.941v-267.691l-213.333-121.813v267.563zM298.667 712.362v-266.027l-213.333 128.299v259.669l213.333-121.941zM85.333 524.8l213.333-128.299v-268.501l-213.333 121.813v274.987zM682.667 250.666v270.037l213.333-109.312v-274.987l-213.333 114.261z" />
<glyph unicode="&#xe685;" d="M128 384h42.667v42.667h-42.667v-42.667zM170.667 810.666h-42.667v-42.667h42.667v42.667zM170.667 42.666h-42.667v-42.667h-85.333v-42.667h213.333v42.667h-85.333v42.667zM128 640h42.667v42.667h-42.667v-42.667zM128 512h42.667v42.667h-42.667v-42.667zM384 981.333v-1024h554.667v1024h-554.667zM725.333 42.666h-256v853.333h256v-853.333zM853.333 42.666h-85.333v85.333h85.333v-85.333zM853.333 170.666h-85.333v85.333h85.333v-85.333zM853.333 298.666h-85.333v85.333h85.333v-85.333zM853.333 426.666h-85.333v85.333h85.333v-85.333zM853.333 554.666h-85.333v85.333h85.333v-85.333zM853.333 682.666h-85.333v85.333h85.333v-85.333zM853.333 810.666h-85.333v85.333h85.333v-85.333zM42.667 938.666h85.333v-42.667h42.667v42.667h85.333v42.667h-213.333v-42.667zM128 128h42.667v42.667h-42.667v-42.667zM128 256h42.667v42.667h-42.667v-42.667z" />
<glyph unicode="&#xe686;" d="M640 791.722v85.333c0 47.104-63.659 104.277-110.848 104.277h-34.219c-47.147 0-110.848-57.173-110.848-104.277v-85.333c-42.667 0-85.333-38.4-85.333-85.333v-42.667c0-31.317 0-58.581 42.667-73.429v-462.293h42.667v-170.667h255.915v170.667h42.667v462.293c42.667 14.848 42.667 42.069 42.667 73.429v42.667c0 46.891-42.667 85.333-85.333 85.333zM554.667 42.666h-85.248v128h85.248v-128zM597.333 213.333h-170.581v256h170.581v-256zM597.333 512h-170.581v85.333h170.581v-85.333z" />
<glyph unicode="&#xe687;" d="M874.069 831.317c-92.672 92.672-220.672 150.016-362.069 150.016-141.312 0-269.312-57.344-361.984-150.016s-150.016-220.672-150.016-361.984c0-141.397 57.344-269.397 150.016-362.069 92.672-92.587 220.672-149.931 361.984-149.931 141.397 0 269.397 57.344 362.069 149.931 92.587 92.672 149.931 220.672 149.931 362.069 0 141.312-57.344 269.312-149.931 361.984zM682.667 469.333c0-47.104-19.157-89.771-50.005-120.661-30.891-30.848-73.557-50.005-120.661-50.005-47.019 0-89.685 19.157-120.576 50.005-30.933 30.891-50.091 73.557-50.091 120.661 0 47.019 19.157 89.685 50.091 120.576s73.557 50.091 120.576 50.091c47.104 0 89.771-19.157 120.661-50.091 30.848-30.891 50.005-73.557 50.005-120.576zM85.333 469.333c0 117.589 47.829 224.256 125.099 301.568l120.576-120.576c-46.336-46.336-75.008-110.336-75.008-180.992s28.672-134.656 75.008-180.992l-120.576-120.576c-77.269 77.227-125.099 183.893-125.099 301.568zM813.568 167.765l-120.576 120.576c46.336 46.336 75.008 110.336 75.008 180.992s-28.672 134.656-75.008 180.992l120.576 120.576c77.269-77.312 125.099-183.979 125.099-301.568 0-117.675-47.829-224.341-125.099-301.568z" />
<glyph unicode="&#xe688;" d="M682.667 853.333h-341.333c-46.933 0-85.333-38.4-85.333-85.333v-597.333c0-46.933 38.4-85.333 85.333-85.333h341.333c46.933 0 85.333 38.4 85.333 85.333v597.333c0 46.933-38.4 85.333-85.333 85.333zM554.667 128h-85.333v85.333h85.333v-85.333zM682.667 256h-341.333v512h341.333v-512z" />
<glyph unicode="&#xe689;" d="M459.989 372.309l-33.323-329.643 203.52 251.435 194.731-87.893 199.083 689.792-564.011-523.691zM1024 896l-1024-420.907 241.749-48.427 184.917-384-133.333 384 730.667 469.333z" />
<glyph unicode="&#xe68a;" d="M502.101 938.666l-170.667-213.333h-170.667c-70.613 0-118.101-68.096-118.101-138.667v-245.333c0-70.571 47.488-128 118.101-128h170.667l170.667-213.333c42.667 0 95.232 0 95.232 0v938.667c-42.667 0-52.565 0-95.232 0zM298.667 298.666h-137.899c-23.595 0-32.768 19.157-32.768 42.667v245.333c0 23.509 9.173 53.333 32.768 53.333h137.899v-341.333zM512 128l-170.667 170.667v341.333l170.667 170.667v-682.667zM981.333 512h-85.333v85.333h-85.333v-85.333h-85.333v-85.333h85.333v-85.333h85.333v85.333h85.333z" />
<glyph unicode="&#xe68b;" d="M297.984 302.165l60.416-60.416c39.339 39.339 93.653 63.744 153.6 63.744s114.261-24.405 153.6-63.744l60.416 60.416c-54.784 54.741-130.432 88.661-214.016 88.661s-159.232-33.92-214.016-88.661zM160.341 439.85l60.501-60.501c74.581 74.624 177.579 120.832 291.157 120.832s216.576-46.208 291.157-120.832l60.501 60.501c-89.984 89.984-214.315 145.664-351.659 145.664s-261.675-55.68-351.659-145.664zM512 780.16c-191.104 0-364.075-77.44-489.344-202.709l60.544-60.544c109.867 109.867 261.547 177.92 428.8 177.92s318.933-68.053 428.8-177.92l60.544 60.544c-125.269 125.269-298.24 202.709-489.344 202.709zM512 213.333c-35.328 0-64-28.672-64-64s28.672-64 64-64 64 28.672 64 64-28.672 64-64 64z" />
</font>
</defs>
</svg>
